#TITLE:STRICTLY BUSINESS;
#SUBTITLE:;
#ARTIST:MANTRONIK VS EPMD;
#TITLETRANSLIT:;
#SUBTITLETRANSLIT:;
#ARTISTTRANSLIT:;
#GENRE:;
#CREDIT:;
#MUSIC:STRICTLY BUSINESS.mp3;
#BANNER:STRICTLY BUSINESS.png;
#BACKGROUND:STRICTLY BUSINESS-bg.png;
#CDTITLE:;
#SAMPLESTART:0.000;
#SAMPLELENGTH:0.000;
#SELECTABLE:YES;
#OFFSET:-0.405;
#BPMS:0.000=125.237;
#STOPS:;
#BGCHANGES:;
#FGCHANGES:;

//--------------- dance-single - HellKiteChaos ----------------
#NOTES:
     dance-single:
     HellKiteChaos:
     Challenge:
     13:
     0,0,0,0,0:
0000
0000
0000
0000
,
0000
0000
0000
0000
,
0000
0000
0000
0000
,
0000
0000
0000
0000
,
0000
0000
0000
0000
,
0000
0000
0000
0000
,
0001
0000
1000
0000
0010
1000
0100
0000
,
1000
0000
0001
0000
0010
0001
0100
0001
,
1001
1000
0100
0000
1001
0001
0010
0000
,
0100
0100
1000
0000
0010
0010
0100
0000
,
0001
0000
1000
0100
0000
0010
0001
0000
1000
0010
1000
0010
0100
0001
0100
0001
,
2000
0000
3200
0000
,
0302
0000
0023
0000
,
2030
0000
3200
0000
,
0302
0000
0023
0000
,
2030
0000
0000
0000
0000
0000
0000
0000
3001
0010
0001
0010
0100
1000
0100
1000
,
0001
0000
1000
0000
0001
0000
0010
0001
0100
0000
0001
0000
1000
0000
1000
0000
,
1000
0000
0001
0000
1000
0000
0010
1000
0100
0000
1000
0000
0001
0000
0001
0000
,
0001
0000
0100
0001
0100
0000
0010
1000
0010
0000
0100
0001
1000
0000
0100
1000
,
0001
0000
0100
0000
0010
0000
0000
0010
1000
0000
0100
0000
0011
0000
0000
0001
,
0100
0000
0010
0000
0100
0000
0001
0100
0010
0000
0010
0000
0100
0000
0001
1000
,
0100
0000
0010
0000
0010
0000
0000
1000
0100
0000
0010
0000
0001
0000
0000
0100
,
0010
0000
0000
1000
0001
0000
0000
0010
0100
0000
1000
0000
1001
0000
0000
0000
,
0100
0010
1000
1000
0100
0010
0001
0000
,
0100
0000
0100
0000
0100
0000
0010
1000
0100
0000
0100
0000
0100
0000
0010
0001
,
0100
0000
0010
0000
0010
0000
0100
0001
0010
0000
0100
1000
0010
0000
0100
0001
,
1000
0001
1000
0100
0010
0001
0100
0000
,
0010
0010
0100
0001
0010
0100
0110
0000
,
0110
0100
1000
0000
0110
0100
0001
0000
,
0000
1010
0000
0101
0000
0011
0000
0110
,
0000
0000
1100
0000
0000
0000
0101
0000
0010
1000
0010
1000
0001
0100
0001
0100
,
0010
0000
1000
0000
0100
0000
1000
0000
0010
0000
0100
0000
0001
0000
0010
0001
,
0100
0000
0100
0000
0100
0000
0010
1000
0100
0000
0100
0000
0100
0000
0110
0000
,
0110
0000
0001
0000
0100
0000
0001
0000
0010
0000
0001
0000
0100
0000
0010
1000
,
0100
0000
0100
0000
0100
0000
0010
0001
0100
0000
0100
0000
0100
0000
0000
0000
,
0010
0000
1000
0000
0100
0000
0001
0000
0100
0000
1000
0000
0010
0000
0100
0001
,
0010
0000
0100
0000
0100
0000
0100
1000
0010
0000
0100
0000
0100
0000
0110
0000
,
0110
0001
0010
1000
0010
0001
0100
0010
,
2001
0000
0100
0000
3001
0001
1000
1000
,
0001
1000
0000
0010
0100
0000
0001
1000
0001
0000
1000
0000
1001
0000
0000
0000
,
0001
0010
0000
0100
1000
0000
0001
1000
0001
0000
1000
0000
1001
0000
0000
0000
,
0001
0100
0000
0010
1000
0000
0001
1000
0001
0000
1000
0000
1001
0000
0000
0000
,
1000
0100
0000
0010
0001
0000
1000
0001
1000
0100
1000
0100
0010
0001
0010
0001
,
1000
0000
0100
0000
0001
0000
0100
0000
1000
0000
0100
0000
0010
0000
0001
0100
,
0010
0000
0010
0000
0010
0000
1000
0100
0010
0000
0010
0000
0010
0000
0110
0000
,
0110
0000
0001
0000
0010
0000
1000
0000
0010
0000
0001
0000
0010
0000
0100
1000
,
0001
0000
0100
0000
0100
0000
0100
0001
1000
0000
1100
0000
0101
0000
0000
0000
;
