#TITLE:stoic (EXTREME version);
#SUBTITLE:;
#ARTIST:TaQ;
#TITLETRANSLIT:;
#SUBTITLETRANSLIT:;
#ARTISTTRANSLIT:;
#GENRE:;
#CREDIT:;
#MUSIC:stoic (EXTREME version).mp3;
#BANNER:stoic (EXTREME version).png;
#BACKGROUND:stoic (EXTREME version)-bg.png;
#CDTITLE:;
#SAMPLESTART:0.000;
#SAMPLELENGTH:0.000;
#SELECTABLE:YES;
#OFFSET:-0.252;
#BPMS:0.000=155.000;
#STOPS:211.750=0.484;
#DISPLAYBPM:155.000;
#BGCHANGES:;
#FGCHANGES:;

//--------------- dance-single - HellKiteChaos ----------------
#NOTES:
     dance-single:
     HellKiteChaos:
     Challenge:
     15:
     0,0,0,0,0:
0000
0000
0000
0000
,
0000
0000
0000
0000
,
0000
0000
0000
0000
,
0000
0000
0000
0000
0000
0000
0000
0000
0000
0000
0001
0000
0100
0000
0010
1000
,
0001
0100
0101
0001
1000
0010
1010
0000
,
1000
0000
0100
0000
1100
0000
0100
0000
0010
0000
0001
0000
0011
0000
0001
1000
,
0100
0010
0011
0001
1000
0100
1100
0000
,
1000
0000
0010
0000
1010
0000
1000
0000
0001
0000
0100
0000
0101
0000
0001
1000
,
0010
1000
1010
1000
0001
0010
0011
0000
,
1000
0000
0100
0000
1100
0000
1000
0000
0001
0000
0010
0000
0011
0000
0001
1000
,
0100
0010
0110
0010
0001
1000
1001
0000
,
0001
1000
0001
1000
0010
0100
0010
0100
0001
1000
0001
1000
0100
0010
0001
1000
,
0001
0000
1000
0000
1001
0000
0001
1000
0100
0000
1000
0000
1100
0000
0000
0000
,
0010
0000
0001
0000
0011
0000
0001
1000
0010
0000
1000
0000
1010
0000
1000
0001
,
0100
0000
0001
0000
0101
0000
0001
1000
0010
0000
1000
0000
1001
0000
0000
0000
,
1000
0000
0100
0000
0110
0000
0100
0010
0001
0000
1000
0000
1001
0000
0001
1000
,
0010
0000
1000
0000
1010
0000
0010
0100
0001
0000
1000
0000
1100
0000
0000
0000
,
0100
0000
1000
0000
1010
0000
1000
0001
0010
0000
0100
0000
0110
0000
0010
0100
,
1000
0000
0001
0000
0101
0000
0100
0010
1000
0000
0001
0000
0011
0000
0000
0000
,
0001
0000
1000
0000
1001
0000
1000
0100
0010
0000
0001
0000
0011
0000
0010
0100
,
2000
0000
0000
0000
0000
0000
0000
0000
0000
0000
0000
0000
3000
0001
0100
0010
,
1000
0000
0001
0000
0100
0001
0100
0000
0001
0000
1000
0000
0010
1000
0010
0000
,
1000
0000
0001
0000
0010
0001
0010
0000
0001
0000
1000
0000
0100
1000
0100
0000
,
0010
0000
0001
0000
0010
0001
0010
0000
0001
0000
1000
0000
0010
1000
0010
0000
,
1000
0000
0001
0000
0100
0001
0100
0000
0001
0000
1000
0000
0100
1000
0100
0000
,
0010
0000
0001
0000
1000
0001
0100
0000
0010
0000
1000
0000
0001
0010
0100
0000
,
1000
0000
0001
0000
1000
0010
0100
0000
0001
0000
1000
0000
0100
0010
0001
0000
,
1000
0000
0001
0000
0100
0010
1000
0000
0001
0000
1000
0000
0001
0010
0100
0000
,
1000
0100
0010
0001
1000
0100
0010
0001
1000
0010
0100
0001
1000
0000
0000
0000
,
0001
0100
0001
0100
0002
0000
0000
0000
0000
0000
0000
0000
0000
0000
0000
0000
,
1003
0000
2001
0000
0000
0000
0000
3001
,
1000
0100
1000
0100
2000
0000
0000
0000
0000
0000
0000
0000
0000
0000
0000
0000
,
0001
0000
0000
0000
3001
0010
0001
0010
0001
0010
0001
0010
0001
0010
0001
0010
,
0001
0100
0001
0100
0002
0000
0000
0000
0000
0000
0000
0000
0000
0000
0000
0000
,
1003
0000
2001
0000
0000
0000
0000
3001
,
1000
0100
1000
0100
1000
0100
1000
0100
0010
0001
0010
0001
0010
0001
0010
0001
,
1000
0001
0100
0010
1000
0001
0100
0010
1000
0001
0010
0100
1000
0001
0010
0100
,
1000
0100
1100
0100
0010
0001
1001
0000
,
0001
0000
0100
0000
0101
0000
0100
0000
0010
0000
1000
0000
1001
0000
0001
1000
,
0100
0010
0011
0001
0100
0010
0110
0000
,
1000
0000
0010
0000
1010
0000
1000
0000
0100
0000
0010
0000
0110
0000
0010
0001
,
1000
0001
1001
1000
0010
0100
0110
0000
,
0100
0000
0001
0000
0101
0000
0001
0000
1000
0000
0100
0000
1100
0000
1000
0001
,
0010
0000
0001
0000
0101
0000
0001
0000
0010
0000
0001
0000
0101
0000
0001
0100
,
0001
1000
0001
0010
0001
1000
0010
1000
0001
1000
0100
0010
0001
1000
0100
0010
,
0001
0000
1000
0001
1000
0000
0001
0100
0001
0000
1000
0010
1000
0000
0001
1000
,
0001
0000
1000
0010
1000
0000
0010
0100
0010
0000
1000
0001
1000
0000
1001
0000
,
0001
0000
1000
0100
1000
0000
0010
0100
0010
0000
0100
0001
0100
0000
0010
1000
,
0010
0000
0100
0001
0100
0000
0001
1000
0001
0000
1000
0100
1000
0000
1001
0000
,
1000
0000
0001
0010
0001
0000
1000
0100
1000
0000
0001
0100
0001
0000
0010
0001
,
0010
0000
0100
0010
0100
0000
1000
0001
1000
0000
0010
0100
0010
0000
1001
0000
,
0001
0000
1000
0000
0010
0000
0100
0000
0001
0000
1000
0000
0010
0000
0100
0001
,
1000
0100
0010
0001
1000
0010
0100
0001
1000
0100
0010
0001
1000
0010
0100
0001
,
1000
0100
1100
1000
0010
0100
0101
0000
,
0100
0001
0101
0001
0010
0100
1100
0110
,
0011
0001
1001
1000
0010
1000
1010
0000
,
0100
0010
0110
0100
0001
1000
1001
0110
,
1001
0001
0011
0010
0100
1000
1001
0000
,
1000
0100
1100
0001
0100
0010
0110
1001
,
0110
0100
0101
0001
1000
0001
0000
2002
,
0000
0000
0000
3003
0000
0000
0000
0000
;
