#VERSION:0.83;
#TITLE:SO DEEP -PERFECT SPHERE REMIX-;
#SUBTITLE:;
#ARTIST:SILVERTEAR;
#TITLETRANSLIT:;
#SUBTITLETRANSLIT:;
#ARTISTTRANSLIT:;
#GENRE:Dance Dance Revolution 6th Mix -Max-,Dancing Stage Euromix 2;
#CREDIT:;
#MUSIC:SO DEEP (PERFECT SPHERE REMIX).mp3;
#BANNER:SO DEEP (PERFECT SPHERE REMIX).png;
#BACKGROUND:SO DEEP (PERFECT SPHERE REMIX)-bg.png;
#CDTITLE:;
#SAMPLESTART:8.550;
#SAMPLELENGTH:12.000;
#SELECTABLE:YES;
#OFFSET:-0.057;
#BPMS:0.000=140.000;
#STOPS:;
#SPEEDS:0.000=1.000=0.000=0;
#SCROLLS:0.000=1.000;
#TICKCOUNTS:0.000=4;
#TIMESIGNATURES:0.000=4=4;
#LABELS:0.000=Song Start;
#COMBOS:0.000=1;
#DISPLAYBPM:140.000;
#ORIGIN:;
#PREVIEWVID:;
#JACKET:;
#CDIMAGE:;
#DISCIMAGE:;
#BGCHANGES:;
#FGCHANGES:;

//--------------- dance-single - HellKiteChaos ----------------
#NOTEDATA:;
#STEPSTYPE:dance-single;
#DESCRIPTION:HellKiteChaos;
#DIFFICULTY:Challenge;
#METER:13;
#RADARVALUES:0,0,0,0,0;
#NOTES:
0000
0000
0000
0000
,
0000
0000
0000
0000
,
0000
0000
0000
0000
,
0000
0000
0000
0000
,
0000
0000
0000
0000
,
2000
0010
0000
0000
3010
0000
1000
0010
0000
0000
0100
0000
0010
0000
0100
0000
,
0002
0100
0000
0000
0103
0000
0001
0100
0000
0000
0001
0000
1000
0000
0001
0000
,
0020
0001
0000
0000
0031
0000
0010
0001
0000
0000
1000
0000
0100
0000
1000
0000
,
0002
0100
0000
0000
0103
0000
0001
0100
0000
0000
0001
0000
0100
0000
0010
0000
,
2000
0001
0000
0000
3001
0000
1000
0100
0000
0000
0010
0000
0100
0000
0010
0000
,
0002
1000
0000
0000
1003
0000
0001
0100
0000
0000
0010
0000
1000
0000
0001
0000
,
0020
0100
0000
0000
0130
0000
0010
0100
0000
0000
0010
0000
0001
0000
1000
0000
,
0200
0010
0000
0000
0310
0000
0100
0010
0000
0000
0001
0000
1000
0000
0001
0000
,
0020
0100
0000
0000
0130
0000
0010
0100
0000
0010
0100
0000
1000
0000
0001
0000
,
0200
0010
0000
0000
0310
0000
0100
0010
0000
0100
0010
0000
1000
0000
0001
0000
,
2000
0100
0000
0000
3100
0000
1000
0100
0000
1000
0100
0000
0010
0000
0001
0000
,
0020
0001
0000
0000
0031
0000
0010
0001
0000
0010
0001
0000
1000
0000
0001
0000
,
0200
0001
0000
0000
0301
0000
0100
0001
0000
0100
0001
0000
0001
0000
1000
0000
,
0020
1000
0000
0000
1030
0000
0010
1000
0000
0010
1000
0000
0001
0000
0100
0000
,
0002
1000
0000
0000
1003
0000
1000
0100
0000
0010
0001
0000
1000
0000
0001
0000
,
2000
0001
0000
0000
3001
0000
0001
0100
0000
0010
1000
0000
2000
0000
3200
0000
,
0320
0000
0000
0000
0001
0000
0000
0001
0000
0030
0001
0000
0002
0000
0203
0000
,
0320
0000
0000
0000
1000
0000
0000
1000
0000
0000
1030
0000
2000
0000
3002
0000
,
1003
0100
0000
1000
0100
0000
1000
0100
0000
0010
0001
0000
0010
0000
0001
0000
,
1000
0010
0000
1000
0010
0000
1000
0010
0000
0100
0001
0000
2000
0000
3020
0000
,
0230
0000
0000
0000
0001
0000
0000
0001
0000
0000
0301
0000
0002
0000
0023
0000
,
0230
0000
0000
0000
1000
0000
0000
1000
0000
0000
1300
0000
2000
0000
3002
0000
,
2003
0000
0010
3020
0000
0100
0230
0000
,
0001
0302
0000
1000
2003
0000
3001
0001
,
2000
0010
0000
0000
3010
0000
0100
0010
0000
1000
0001
0000
1000
0000
0001
0000
,
0002
0100
0000
0000
0103
0000
0010
0100
0000
0001
1000
0000
0001
0000
1000
0000
,
0002
0010
0000
0000
0013
0000
0100
0010
0000
0001
1000
0000
0001
0000
1000
0000
,
2000
0100
0000
0000
3100
0000
0010
0100
0000
1000
0001
0000
1000
0000
0001
0000
,
1000
0010
0000
0000
1010
0000
1000
0001
0000
1000
0001
0000
1000
0000
0100
0000
,
0010
0001
0000
0000
0011
0000
0001
1000
0000
0001
1000
0000
0001
0000
0100
0000
,
0010
0100
0000
0010
0100
0000
0010
0100
0000
0001
1000
0000
0100
0000
0010
0000
,
0100
0010
0000
0100
0010
0000
0100
0010
0000
0001
1000
0000
0001
0000
1000
0000
,
0000
2100
0000
0001
0000
0100
0000
3001
,
0000
0102
0000
1000
0000
0100
0000
1003
,
0000
2010
0000
0001
0000
0010
0000
3001
,
0000
0012
0000
1000
0000
0010
0000
1003
,
1000
1000
0100
0100
1000
1000
0100
0100
,
0010
0010
0001
0001
0010
0010
0001
0001
,
1000
0010
1000
0010
0100
0001
0100
0001
,
0010
0001
0010
0001
1000
0100
1000
0100
,
0010
0001
0000
0010
0001
0000
1000
0000
0010
1000
0000
0010
1000
0000
0001
0000
,
1000
0100
0000
1000
0100
0000
1000
0000
0001
0000
1000
0000
1001
0000
0000
0000
,
0001
0100
0000
0001
0100
0000
0001
0000
1000
0100
0000
1000
0100
0000
1000
0000
,
0010
0100
0000
0010
0100
0000
0001
0000
1000
0000
0001
0000
1001
0000
0000
0000
,
0001
0000
1000
0000
0001
0100
0001
0000
1000
0000
0001
0000
1000
0100
1000
0000
,
0001
0000
1000
0000
0010
1000
0010
0000
1000
0000
0001
0000
0010
0001
0010
0000
,
0100
0010
0100
1000
0010
0100
0010
0100
,
0001
1000
0001
0000
1000
0001
1000
0000
0010
0100
0010
0000
0100
0010
0100
0000
,
2002
3003
0000
0000
;
