#TITLE:NORI NORI NORI;
#SUBTITLE:;
#ARTIST:JUDY CRYSTAL;
#TITLETRANSLIT:;
#SUBTITLETRANSLIT:;
#ARTISTTRANSLIT:;
#GENRE:Dance Dance Revolution 6th Mix -Max-,Dancing Stage Euromix 2;
#CREDIT:;
#MUSIC:NORI NORI NORI.mp3;
#BANNER:NORI NORI NORI.png;
#BACKGROUND:NORI NORI NORI-bg.png;
#CDTITLE:;
#SAMPLESTART:0.000;
#SAMPLELENGTH:0.000;
#SELECTABLE:YES;
#OFFSET:-0.053;
#BPMS:0.000=160.305;
#STOPS:;
#DISPLAYBPM:160.000;
#BGCHANGES:;
#FGCHANGES:;

//--------------- dance-single - HellKiteChaos ----------------
#NOTES:
     dance-single:
     HellKiteChaos:
     Challenge:
     15:
     0,0,0,0,0:
0000
0000
0000
0000
,
0000
0000
0000
0000
,
0001
0000
0100
0000
0010
1000
0010
1000
0000
0001
1000
0001
1000
0000
0001
0000
,
0100
0001
0100
0000
0010
0000
1000
0000
0001
1000
0001
0000
0010
0000
0100
0000
,
1000
0000
0100
0000
0010
0001
0010
0001
0000
1000
0001
1000
0001
0000
0100
0000
,
0010
1000
0010
0000
1000
0000
0001
0000
0100
0010
0100
0000
0010
0000
1000
0000
,
0001
0100
0001
0100
0010
1000
0010
1000
0010
0100
0001
1000
0010
0100
0001
0000
,
0000
0000
0000
0000
0110
1001
0000
0000
,
1000
0100
1000
0001
1000
0100
0010
0100
,
1000
0001
1000
0100
0010
0001
1000
0000
,
0010
1000
0001
1000
0010
0100
0001
1000
,
0001
0100
0010
1000
0001
0100
0010
0000
,
1000
0100
1000
0010
0000
0010
0100
0010
,
0100
0001
0010
0001
0000
0100
0010
0000
,
1000
0100
1000
0001
0100
0001
1000
0010
,
0100
0000
0010
0100
0010
0100
0001
1000
0001
1000
0100
0010
0100
0010
0001
1000
,
0001
0100
0010
0100
0001
0100
1000
0100
,
0010
0000
1000
0000
0100
0000
0010
0000
0001
0000
1000
0000
0001
1000
0001
0000
,
1000
0010
0100
1000
0100
0001
0100
0010
,
1000
0100
0010
0001
0100
0010
1000
0000
,
0001
0100
1000
0100
0001
1000
0001
0000
,
1000
0010
0001
0010
1000
0100
0010
0000
,
0011
0000
0000
0000
0001
0100
0010
0000
0000
0000
0110
0000
0000
0000
2002
0000
,
0000
0000
0000
3003
,
0001
0000
1000
0000
0001
0000
1000
0000
0010
1000
0010
1000
0100
0000
2001
0000
,
0000
3100
1000
0001
0010
0001
1000
1100
,
0000
0010
0001
0010
0001
1000
0010
0100
,
0000
0000
0010
0000
0100
0000
0001
0000
1000
0100
0010
0001
1000
0100
0010
0001
,
1000
0000
0001
0000
1000
0000
0001
0000
0010
0001
0010
0001
0100
0000
1002
0000
,
0000
0103
0010
1000
0100
0010
0001
1000
,
0000
0000
0001
0100
0001
0000
1000
0010
1000
0000
0001
0100
0010
0000
1000
0000
,
0001
0010
0100
0000
0010
0100
1000
0000
0100
1000
0001
1000
0001
0100
0010
1000
,
0001
0000
1000
0000
0001
0000
1000
0000
0010
1000
0010
1000
0100
0000
1002
0000
,
0000
0103
0010
0100
0001
1000
0100
0010
,
0000
0001
0010
0100
1000
0001
0010
0100
,
1000
0000
0001
0000
0100
0000
0010
0000
0100
0010
1000
0001
0100
0010
1000
0001
,
0100
0000
0010
0000
0100
0000
0010
0000
1000
0001
1000
0001
0010
0000
0210
0000
,
0000
0310
0100
1000
0001
0010
0100
1100
,
0000
0100
0010
0100
1000
0001
0100
0110
,
0000
0000
0000
0000
1001
1001
0000
0000
,
0001
0000
0100
0000
0010
1000
0010
1000
0000
0001
1000
0001
1000
0000
0001
0000
,
0100
0001
0100
0000
0010
0000
1000
0000
0001
1000
0001
0000
0010
0000
0100
0000
,
1000
0000
0100
0000
0010
0001
0010
0001
0000
1000
0001
1000
0001
0000
0100
0000
,
0010
1000
0010
0000
1000
0000
0001
0000
0100
0010
0100
0000
0010
0000
1000
0000
,
0001
0000
0100
0000
0010
1000
0010
1000
0000
0001
1000
0001
1000
0000
0001
0000
,
0100
0001
0100
0000
0010
0000
1000
0000
0001
1000
0001
0000
0010
0000
0100
0000
,
1000
0001
1000
0001
0100
0010
1000
0001
0100
0010
0100
0010
1000
0001
1000
0000
,
0000
0000
0000
0000
0110
1001
0000
0000
;
