#TITLE:MY BABY MAMA;
#SUBTITLE:;
#ARTIST:ANQUETTE;
#TITLETRANSLIT:;
#SUBTITLETRANSLIT:;
#ARTISTTRANSLIT:;
#GENRE:;
#CREDIT:;
#MUSIC:MY BABY MAMA.mp3;
#BANNER:MY BABY MAMA.png;
#BACKGROUND:MY BABY MAMA-bg.png;
#CDTITLE:;
#SAMPLESTART:0.000;
#SAMPLELENGTH:0.000;
#SELECTABLE:YES;
#OFFSET:-0.637;
#BPMS:0.000=137.950;
#STOPS:;
#DISPLAYBPM:138.000;
#BGCHANGES:;
#FGCHANGES:;

//--------------- dance-single - HellKiteChaos ----------------
#NOTES:
     dance-single:
     HellKiteChaos:
     Challenge:
     13:
     0,0,0,0,0:
0000
0000
0000
0000
,
0000
0000
0000
0000
0000
0000
0000
1010
,
1000
0000
0001
0000
0100
0000
0001
0000
1000
0100
0000
0100
0000
0000
0011
0000
,
0001
0000
1000
0000
0001
0000
0100
0000
0010
1000
0000
1000
0000
0000
0110
0000
,
0010
0000
1000
0000
0001
0000
0010
0000
0100
0010
0000
0010
0000
0000
0011
0000
,
0001
0000
1000
0000
0010
0000
0100
0000
0001
1000
0000
1000
0000
0000
0000
0000
,
0001
1000
0000
0001
1000
0000
0100
0000
0010
0000
0010
0000
0010
0000
0010
0000
,
0001
0100
0000
0001
0100
0000
0010
0000
1000
0000
1000
0000
1000
0000
1000
0000
,
0100
0010
0000
0100
0010
0000
0001
0000
1000
0000
1000
0000
1000
0000
1000
0000
,
0001
0010
0000
0001
0010
0000
0100
0000
0010
0000
0010
0000
0010
0000
0010
0000
,
0001
0010
0100
0000
1000
0010
0100
0000
,
0001
1000
0100
1000
0001
1000
0100
0000
,
0010
0001
0100
0000
0010
1000
0100
0000
,
0010
0000
0001
0000
1000
0000
0010
0000
2000
0000
3002
0000
0013
0100
0010
0100
,
1000
0001
1000
0000
0010
0100
0001
0000
,
1000
0100
0001
0100
0010
0100
1100
0000
,
0100
1000
0010
1000
0010
0100
0101
0001
,
0100
0001
1000
0100
1000
0001
0010
0001
1000
0000
0010
0000
0110
0000
0000
0000
,
0010
1000
0010
0000
0010
0000
0100
0001
0100
0000
0100
0000
0010
1000
0000
0000
,
0000
0110
1001
0000
,
0010
0000
1000
0000
0001
0000
0010
0000
0100
1000
0000
1000
0000
1000
0001
0000
,
0100
0000
0010
0000
1000
0000
0001
0000
0010
0100
0000
0100
0000
0100
1000
0000
,
0010
0000
0100
0000
0001
0000
1000
0000
0010
0100
0000
0100
0000
0100
0001
0000
,
0100
0000
0001
0000
1000
0000
0100
0000
0010
0001
0000
0001
0100
0000
0100
0000
,
0010
0000
1000
0000
0100
0000
0010
0000
0001
1000
0000
0001
1000
0000
0010
0000
,
1000
0000
0001
0000
0010
0000
0100
0000
1000
0001
0000
1000
0001
0000
0100
0000
,
0010
0000
1000
0000
0100
0000
0010
0000
0001
0010
0000
0001
0010
0000
0110
0000
,
0100
0000
1000
0000
0100
0000
0010
0000
0001
0010
0100
0010
0001
0000
0001
0000
,
1000
0001
1000
0000
0010
0000
1000
0000
0100
0000
1000
0000
1010
0000
0000
0000
,
0001
0000
0100
0000
0001
1000
0001
0000
1000
0000
0100
0000
1001
0000
0000
0000
,
1000
0100
1000
0001
0100
0001
1000
0000
,
0010
0100
0010
0000
1000
0000
0100
0000
0100
0010
0100
0010
0100
0000
0000
0000
,
0010
0001
0100
0010
1000
0001
0101
0000
,
0010
0100
0001
0010
0100
1000
1001
0000
,
1000
0010
1000
0010
0100
0010
0100
0010
,
0100
0000
0001
0000
0010
0000
0000
0100
0010
0000
0001
0000
1000
0000
0010
0000
,
0100
0001
0100
0000
0100
0000
0010
1000
0010
0000
0010
0000
0100
0001
0000
0000
,
0000
0000
0000
0000
,
1000
0100
1000
0000
0100
0000
0010
0001
0010
0000
0001
0000
1000
0001
0000
0000
,
0000
0000
0000
0000
0100
0000
0010
1000
0010
1000
0000
0000
0101
0000
0000
0000
,
1000
0100
0000
0010
0001
0000
1000
0000
0010
0100
0000
0100
0000
0000
0010
0000
,
1000
0001
0000
0100
0001
0000
1000
0000
0100
0010
0000
0010
0000
0000
0001
0000
,
0110
0000
1000
0000
0110
0000
0001
0000
1000
0010
0000
0010
0000
0000
0110
0000
,
0100
0000
0001
0000
1000
0000
0010
0000
0100
0001
0000
0100
0001
0000
0000
0000
,
1000
0001
0010
0000
0100
0000
1000
0000
0001
0000
1001
0000
1001
0000
0000
0000
,
0001
1000
0010
0000
0100
0000
0001
0000
1000
0000
0110
0000
0110
0000
0000
0000
,
0010
1000
0100
0000
0100
0000
0010
0000
0001
0000
0011
0000
0011
0000
0000
0000
,
0010
0001
0100
0000
0010
0000
1000
0000
1010
0000
1010
0000
1010
0000
0000
0000
,
0010
1000
0010
0000
0010
0000
0100
0001
0100
0000
0100
0000
0001
1000
0000
0000
,
0000
0000
0010
0000
0010
0000
0100
0001
1000
0100
0000
0000
0000
0000
0000
0000
;
