#TITLE:MAKE IT BETTER;
#SUBTITLE:;
#ARTIST:mitsu-O!;
#TITLETRANSLIT:;
#SUBTITLETRANSLIT:;
#ARTISTTRANSLIT:;
#GENRE:;
#CREDIT:;
#MUSIC:MAKE IT BETTER.mp3;
#BANNER:MAKE IT BETTER.png;
#BACKGROUND:MAKE IT BETTER-bg.png;
#CDTITLE:;
#SAMPLESTART:0.000;
#SAMPLELENGTH:0.000;
#SELECTABLE:YES;
#OFFSET:-0.035;
#BPMS:0.000=119.200;
#STOPS:;
#BGCHANGES:;
#FGCHANGES:;

//--------------- dance-single - HellKiteChaos ----------------
#NOTES:
     dance-single:
     HellKiteChaos:
     Challenge:
     13:
     0,0,0,0,0:
0000
0000
0000
0000
,
0000
0000
0000
0000
,
0000
0000
0000
0000
,
0000
0000
0000
0000
,
1000
0001
0001
0000
0100
0010
0010
0000
,
1000
0100
0001
0100
1000
0000
0001
0000
,
0000
0000
0000
0000
0000
0000
1100
0000
0000
0000
0101
0000
0000
1001
0000
0000
,
1000
1100
0001
0101
2001
0000
3001
0000
,
1000
0000
0010
0000
0010
0000
0000
0100
0001
0000
0001
0000
1000
0000
0000
0000
,
0110
0001
0001
0000
0100
0100
0010
0000
,
1001
1000
0100
0000
1001
0001
0100
0000
,
0010
1000
0000
1000
0000
0001
0000
0001
0010
0000
0010
0000
0100
0000
0100
0000
,
1000
0000
0001
0000
0100
0010
0000
0010
0000
0000
1000
0000
0001
0000
0000
0000
,
0010
0000
0100
0000
1000
0001
0000
0001
0000
0000
1000
0000
0010
0000
0000
0000
,
0100
0000
0100
0000
0010
1000
0000
1000
0000
0000
0001
0000
1000
0000
0000
0000
,
0001
0101
1000
1100
1002
0000
1003
0000
,
1010
0010
0010
0000
1010
1000
1000
0000
,
0101
0100
0100
0001
1000
0100
1000
0000
,
0011
0101
1010
1100
,
0010
0001
0000
0001
0000
0100
0000
0100
0000
0010
1000
0010
1000
0020
0000
0000
,
1030
0000
1002
0000
0000
0000
1003
0000
0001
0100
1000
0100
0001
1000
0000
0000
,
0000
0102
0000
0013
0000
2100
0000
3010
,
0100
0000
0000
0000
1001
0000
0000
0000
1000
0100
0001
0100
1000
0001
0000
0000
,
1000
0010
0000
0100
0000
0010
0000
0100
0000
0001
0000
1000
0000
0001
1000
0002
,
0000
0000
1003
0000
0110
0000
0000
0000
0010
0001
0100
0001
0010
0100
0000
0000
,
0000
2100
0000
3010
0000
0102
0000
0013
,
0100
0000
0000
0000
1001
0000
0000
0000
0010
1000
0100
1000
0010
0100
0000
0000
,
0100
0001
0100
0000
0010
1000
0010
0000
0100
0001
0100
0000
0010
1000
0010
0000
,
1000
0000
0100
0000
0010
0000
0001
1000
0000
1000
0000
0000
0001
0000
0000
0000
,
0100
0000
0010
0000
1000
0000
0001
0100
0000
0100
0000
0000
0010
0000
0000
0000
,
1000
0000
0001
0000
0010
0000
0100
1000
0000
1000
0000
0000
0001
0000
0000
0000
,
0001
0101
1000
1100
1002
0000
1003
0000
,
0001
0000
0010
0000
0100
0000
1000
0100
0000
0100
0000
0000
0010
0000
0000
0000
,
0001
0000
0100
0000
0010
0000
1000
0010
0000
0010
0000
0000
0100
0000
0000
0000
,
0001
0000
1000
0000
0100
0000
0010
0001
0000
0001
0000
0000
1000
0000
0000
0000
,
0010
1000
0000
0001
0000
0100
0000
0010
0000
1000
0001
1000
0001
1000
0000
0000
,
0100
0000
1002
0000
0000
0000
1003
0000
0001
0010
1000
0010
0001
1000
0000
0000
,
0000
2010
0000
3100
0000
0012
0000
0103
,
0010
0000
0000
0000
1001
0000
0000
0000
1000
0010
0001
0010
1000
0001
0000
0000
,
1000
0100
0000
0010
0000
0100
0000
1000
0000
0100
0000
0010
0001
0010
0001
0020
,
0000
0000
0130
0000
1001
0000
0000
0000
1000
0010
0100
0001
1000
0001
0000
0000
,
0000
2100
0000
3010
0000
0012
0000
0103
,
0010
0000
0000
0000
1001
0000
0000
0000
0001
0010
0100
1000
0001
1000
0000
0000
,
0000
1010
0000
0110
0000
1010
0000
0101
0000
1100
0000
0001
1000
0200
0000
0000
,
0300
0000
0000
0000
;
