#VERSION:0.83;
#TITLE:LET'S GROOVE;
#SUBTITLE:;
#ARTIST:TIPS & TRICKS VS WISDOME;
#TITLETRANSLIT:;
#SUBTITLETRANSLIT:;
#ARTISTTRANSLIT:;
#GENRE:;
#CREDIT:;
#MUSIC:LET'S GROOVE.mp3;
#BANNER:LET'S GROOVE.png;
#BACKGROUND:LET'S GROOVE-bg.png;
#CDTITLE:;
#SAMPLESTART:22.640;
#SAMPLELENGTH:12.000;
#SELECTABLE:YES;
#OFFSET:-0.100;
#BPMS:0.000=130.000
,114.000=65.000
,130.000=130.000
;
#STOPS:;
#SPEEDS:0.000=1.000=0.000=0;
#SCROLLS:0.000=1.000;
#TICKCOUNTS:0.000=4;
#TIMESIGNATURES:0.000=4=4;
#LABELS:0.000=Song Start;
#COMBOS:0.000=1;
#DISPLAYBPM:65.000:130.000;
#ORIGIN:;
#PREVIEWVID:;
#JACKET:;
#CDIMAGE:;
#DISCIMAGE:;
#BGCHANGES:;
#FGCHANGES:;

//--------------- dance-single - HellKiteChaos ----------------
#NOTEDATA:;
#STEPSTYPE:dance-single;
#DESCRIPTION:HellKiteChaos;
#DIFFICULTY:Challenge;
#METER:12;
#RADARVALUES:0,0,0,0,0;
#NOTES:
0000
0000
0000
0000
,
0000
0000
0000
0000
,
0000
0000
0000
0000
2001
0000
0000
3100
,
0010
0000
0001
0000
1002
0000
0000
0103
,
0010
1000
1000
0000
2001
0000
0000
0010
,
3020
0000
0130
0000
1002
0000
0000
0010
,
0023
0000
0130
0000
2001
0000
0000
0010
,
3020
0000
1030
0000
0200
1300
0200
0310
,
0200
0301
0200
0310
0200
1300
0200
0310
,
0200
0301
0200
0310
0200
1300
0200
0310
,
0200
0301
0200
0310
0200
1300
0200
0310
,
0200
0000
0301
0000
0200
0000
0310
0000
0001
1000
0001
1000
0001
1000
0001
1000
,
0002
0000
1003
0000
1000
0100
1000
0010
,
2000
0000
3002
0000
0013
0001
0100
0002
,
0000
1003
1000
1000
1001
0001
0100
0010
,
2000
0000
3002
0000
0013
0100
0010
0100
,
1000
0000
0001
1000
0100
0000
0010
0001
1000
0000
0100
0000
1000
0000
0010
0000
,
2000
0000
3002
0000
1003
0010
0100
0002
,
0000
0013
0010
0010
0110
0000
0100
1000
,
0002
0000
2003
0000
3001
0100
0001
0010
,
0010
0100
0100
1000
0001
0010
0001
0100
,
0002
0000
2003
0000
3100
1000
0010
2000
,
0000
3001
0001
0001
1001
1000
0010
0100
,
0002
0000
2003
0000
3100
0010
0100
0010
,
0001
0000
1000
0001
0010
0000
0100
1000
0001
0000
0010
0000
0001
0000
0100
0000
,
0002
0000
2003
0000
3001
0100
0010
2000
,
0000
3100
0100
0100
0110
0000
0010
0001
,
2000
3002
2003
0001
,
0000
0000
0000
0000
3001
0000
0000
0000
0000
0000
0001
1000
0100
0000
0000
0000
,
0100
0000
0100
0000
0100
1000
0001
0000
,
0100
0000
0000
0000
0100
0000
0000
0000
0110
0000
0001
1000
0100
0000
0000
0000
,
0000
0000
0000
1000
0011
1000
0010
0001
,
1000
0000
0100
0000
0010
0001
0010
0001
0100
0000
0010
0000
0100
0000
0010
0000
,
1000
0001
1000
0001
0010
0100
0010
0100
,
1000
0100
0010
0001
2000
0000
3001
0000
,
0002
0000
1003
0000
0010
0100
0010
2000
,
0000
3001
0001
0001
0100
0000
0010
1000
,
0001
0000
0010
0000
0100
0000
1000
0100
,
0000
0010
0001
0000
1010
0000
0001
0000
,
0011
0000
1000
0000
0001
0100
0010
1000
,
0000
1000
0100
0002
0000
0000
0003
0000
;
