#TITLE:La Senorita;
#SUBTITLE:;
#ARTIST:CAPTAIN.T;
#TITLETRANSLIT:;
#SUBTITLETRANSLIT:;
#ARTISTTRANSLIT:;
#GENRE:Dance Dance Revolution 3rd Mix,Dancing Stage Euromix 1;
#CREDIT:;
#MUSIC:La Senorita.mp3;
#BANNER:La Senorita.png;
#BACKGROUND:La Senorita-bg.png;
#CDTITLE:;
#SAMPLESTART:0.000;
#SAMPLELENGTH:0.000;
#SELECTABLE:YES;
#OFFSET:-0.041;
#BPMS:0.000=182.000;
#STOPS:;
#DISPLAYBPM:182.000;
#BGCHANGES:;
#FGCHANGES:;

//--------------- dance-single - HellKiteChaos ----------------
#NOTES:
     dance-single:
     HellKiteChaos:
     Challenge:
     12:
     0,0,0,0,0:
0000
0000
0000
0000
,
0000
0000
0000
0000
,
0000
0000
0000
0000
,
0000
0000
0000
0000
,
0000
0000
0000
0000
,
0001
0000
0100
0010
1000
0000
0100
0010
,
0001
0000
0100
0010
1000
0000
0100
0010
,
0001
0000
0100
0010
1000
0000
0100
0010
,
0001
1000
1000
0000
0001
0001
0100
0000
,
0001
0010
0001
0000
1000
0010
1000
0000
,
0001
0100
0001
0000
1000
0010
1000
0000
,
0001
0010
0001
0000
1000
0100
1000
0010
,
0100
0100
0000
0001
1000
0001
1000
0010
,
1000
0100
0000
0010
0001
0100
0000
0010
,
1000
0001
0000
0100
0001
1000
0000
0100
,
1000
0100
0000
0010
0001
0010
0000
0100
,
1000
0001
0010
0100
1000
0001
0100
0000
,
0010
1000
0001
0010
0001
1000
0010
1000
,
0001
0010
0001
1000
0010
0100
0001
1000
,
0100
1000
0001
0100
0001
1000
0100
1000
,
0001
0100
0010
1000
0100
0010
0001
0000
,
1000
0010
1000
0001
0010
0001
1000
0010
,
1000
0001
0010
0001
1000
0010
0100
0001
,
1000
0100
1000
0001
0100
0001
1000
0000
,
1001
1001
0110
0110
,
0010
1000
0100
0010
0001
0100
0010
1000
,
0001
0000
0100
0010
1000
0000
0100
0010
,
0001
0000
0100
0010
1000
0000
0100
0010
,
0001
0000
0100
0010
1000
0000
0100
0010
,
0001
0000
1000
0010
0100
0001
1000
0001
,
1000
0010
0100
0000
0001
0010
0100
0000
,
1000
0010
0100
0000
0001
0010
0100
0000
,
1000
0010
0100
0000
0001
0010
0100
1000
,
0010
0100
0010
0100
0001
1000
0100
0010
,
0000
1001
0000
0000
0000
0000
0000
0010
,
0100
0000
0000
0001
1000
0001
1000
0000
,
0000
0110
0000
0000
,
0011
0000
1100
0000
0011
0000
0000
0000
0000
0000
0000
0000
,
1001
0000
0000
1001
0000
0000
0000
0100
,
0010
0000
0000
0100
0010
0000
1000
0001
,
0000
0110
0000
0000
,
1000
0000
0010
0000
0100
0000
0001
0000
0010
0000
0100
0000
,
0000
1002
0000
0000
,
0010
0010
0010
0013
,
0000
0001
0010
0000
0000
1000
0010
0000
,
0000
0001
0100
0000
0000
1000
0100
0000
,
0000
0010
0001
0000
0000
1000
0010
0000
,
0000
0100
0001
0000
0000
1000
0001
1000
,
0010
0100
0000
0001
0010
0100
0000
1000
,
0010
0100
0000
0001
0010
0100
0000
1000
,
0010
0100
0000
0001
0010
0100
1000
0000
,
0010
0100
0010
0100
0010
0100
0001
0000
,
1000
0100
1000
0001
0100
0001
1000
0100
,
1000
0001
0100
0001
1000
0100
0010
0001
,
1000
0010
1000
0001
0010
0001
1000
0010
,
1000
0001
0010
0100
1000
0001
1000
0000
,
0001
0100
0001
1000
0100
1000
0001
0100
,
0001
1000
0100
1000
0001
0100
0010
1000
,
0001
0010
0001
1000
0010
1000
0001
0000
,
0110
0110
1001
1001
,
0000
0010
0000
0100
0000
0010
1000
0001
,
0000
0000
1001
0000
0100
0010
1000
0000
,
0100
0010
0001
0000
0100
0010
1000
0000
,
0100
0010
0001
0000
0100
0010
1000
0000
,
0100
0010
0001
1000
0010
0100
0010
0100
,
0001
0010
0100
0000
1000
0010
0100
0000
,
0001
0010
0100
0000
1000
0010
0100
0000
,
0001
0010
0100
0000
1000
0010
0100
0001
,
0000
1000
0001
1000
0001
1000
0001
0000
,
0010
0100
1000
0000
0001
1000
0001
1000
,
0000
0010
0100
0000
0001
1000
0001
0000
,
1000
0100
0010
0000
0001
0100
0010
0000
,
1000
0010
0100
0000
0001
0010
0100
0000
,
0000
1001
2002
0000
0000
0000
3003
0000
;
