#TITLE:Kind Lady;
#SUBTITLE:;
#ARTIST:OKUYATOS;
#TITLETRANSLIT:;
#SUBTITLETRANSLIT:;
#ARTISTTRANSLIT:;
#GENRE:;
#CREDIT:;
#MUSIC:Kind Lady.mp3;
#BANNER:Kind Lady.png;
#BACKGROUND:Kind Lady-bg.png;
#CDTITLE:;
#SAMPLESTART:0.000;
#SAMPLELENGTH:0.000;
#SELECTABLE:YES;
#OFFSET:-0.384;
#BPMS:0.000=135.000;
#STOPS:;
#DISPLAYBPM:135.000;
#BGCHANGES:;
#FGCHANGES:;

//--------------- dance-single - HellKiteChaos ----------------
#NOTES:
     dance-single:
     HellKiteChaos:
     Challenge:
     13:
     0,0,0,0,0:
0000
0000
0000
0000
,
0000
0000
0000
0000
,
0000
0000
0000
0000
,
0000
0000
0000
0000
,
2000
0000
0000
3001
0000
0000
0100
0000
0020
0000
0000
1030
0000
0000
0001
0000
,
0020
0000
0000
0130
0000
0000
1000
0000
0001
0000
0100
0000
0001
1000
0000
0000
,
0002
0000
0000
0013
0000
0000
0100
0000
2000
0000
0000
3010
0000
0000
0100
0000
,
0001
1000
0100
1000
0100
0010
0001
0000
1000
0001
0100
0001
0100
0010
1000
0000
,
1001
1000
1000
0001
0200
0000
0310
1000
,
0001
0000
0100
0000
0010
1000
0000
1000
0000
0001
0000
0100
0000
0020
0000
0000
,
1030
0000
0100
1000
0100
0000
0010
0000
0001
0000
0000
0000
1001
0000
1000
0000
,
0200
0000
0000
0020
0300
0000
0002
0000
0033
0000
0001
1000
0100
0000
1000
0000
,
1100
0000
1000
0000
0001
0000
0010
0000
0100
0010
0000
0020
0000
0000
0031
0000
,
1000
0020
0000
2030
0000
3020
0000
0230
0000
0302
0000
2003
0000
3001
0000
0000
,
0001
0000
0100
0000
0001
0000
0010
0000
0001
0010
0000
0020
0000
0000
0130
0000
,
0110
0000
0000
1100
0000
0000
2002
0000
0000
0000
0000
0000
0003
0000
0000
0000
,
3010
0000
0100
0001
0100
0000
0010
0000
1000
0000
0001
0000
1000
0000
0000
0000
,
0100
0000
0010
0002
0000
0023
0000
0230
0000
2300
0000
3200
0000
0310
0000
0000
,
0110
0000
0100
0010
0001
0000
1000
0000
0001
0000
0000
0000
1001
0000
0001
0000
,
0101
0000
0000
0110
0000
0000
2010
0000
0000
3000
0010
1000
0010
1000
0010
0000
,
1000
0000
0001
0000
0100
0000
0001
0000
1000
0010
0000
0010
0100
0000
0001
0000
,
0001
0200
0000
0320
0000
2030
0000
3020
0000
0230
0000
0302
0000
2003
0000
3000
,
0100
0000
1000
0000
1100
0000
0100
0000
0010
0001
0000
0002
0000
0000
1003
0000
,
1001
0000
0000
0110
0000
0000
1002
0000
0000
0003
1000
0100
0010
0001
1000
0000
,
0001
0000
0100
0000
0010
0000
1000
0000
0010
0000
1000
0000
0100
0000
0010
0001
,
1000
0000
0100
0010
0001
0000
1000
0001
0010
0000
0100
1000
0001
0000
0100
0000
,
0101
0000
1000
0010
1010
0000
0010
0100
,
0002
0000
0000
2003
0000
0000
3010
0000
0100
0000
0001
1000
0001
1000
0001
0000
,
1000
0001
0010
0100
1000
0001
1000
0100
,
0010
0001
1000
0000
0001
1000
0010
0000
1000
0001
0100
0000
0001
1000
0010
0000
,
0100
0100
0001
0001
1000
0010
0100
0001
,
0201
0010
1000
0010
,
0301
0000
1000
0001
0100
0000
0001
0000
1000
0000
0001
1000
0100
0000
1000
0000
,
0001
0000
0010
0100
0010
0000
0100
1000
0100
0000
1000
0000
1001
0000
0000
0000
,
0001
0001
0010
0010
0100
0100
1000
0010
,
0100
0001
0100
0010
1000
0001
0100
0010
,
1000
0020
0030
0100
0100
0010
0100
0001
,
0100
0001
1000
0000
0010
1000
0001
0000
0100
0001
0010
0000
0100
1000
0010
0000
,
0100
0100
0010
0100
0100
0100
0001
1000
,
0002
0000
0023
0000
0230
0000
1300
0001
,
1000
0000
0100
0000
0010
0001
0000
0010
0001
0000
0100
0000
0010
1000
0000
0010
,
1000
0000
0001
0000
0100
0010
0000
0100
0010
0000
1000
0000
1001
0000
1000
0000
,
0100
0000
0010
0000
0001
0010
0000
0001
0010
0000
0001
0000
1000
0010
0000
1000
,
0010
0000
1000
0000
0001
0100
0000
0101
0000
0000
0000
0000
0000
0000
0000
0000
,
0001
0000
0010
0000
0100
1000
0000
0100
1000
0000
0010
0000
0100
0001
0000
0100
,
0001
0000
1000
0000
0010
0100
0000
0010
0100
0000
0001
0000
1001
0000
0001
0000
,
0010
0000
0100
0000
1000
0100
0000
1000
0100
0000
1000
0000
0001
0100
0000
0001
,
0100
0000
0001
0000
1000
0010
0000
1000
0100
0000
0010
0000
0001
0000
0100
0000
,
2002
0000
3003
0000
;
