#VERSION:0.83;
#TITLE:JUSTIFY MY LOVE;
#SUBTITLE:;
#ARTIST:TESS;
#TITLETRANSLIT:;
#SUBTITLETRANSLIT:;
#ARTISTTRANSLIT:;
#GENRE:;
#CREDIT:;
#MUSIC:JUSTIFY MY LOVE.mp3;
#BANNER:JUSTIFY MY LOVE.png;
#BACKGROUND:JUSTIFY MY LOVE-bg.png;
#CDTITLE:;
#SAMPLESTART:52.460;
#SAMPLELENGTH:12.000;
#SELECTABLE:YES;
#OFFSET:-0.034;
#BPMS:0.000=140.000;
#STOPS:;
#SPEEDS:0.000=1.000=0.000=0;
#SCROLLS:0.000=1.000;
#TICKCOUNTS:0.000=4;
#TIMESIGNATURES:0.000=4=4;
#LABELS:0.000=Song Start;
#COMBOS:0.000=1;
#DISPLAYBPM:140.000;
#ORIGIN:;
#PREVIEWVID:;
#JACKET:;
#CDIMAGE:;
#DISCIMAGE:;
#BGCHANGES:;
#FGCHANGES:;

//--------------- dance-single - HellKiteChaos ----------------
#NOTEDATA:;
#STEPSTYPE:dance-single;
#DESCRIPTION:HellKiteChaos;
#DIFFICULTY:Challenge;
#METER:15;
#RADARVALUES:0,0,0,0,0;
#NOTES:
0000
0000
0000
0000
,
0000
0000
0000
0000
,
0000
0000
0000
0000
,
0000
0000
0000
0000
0000
1000
0100
0010
,
0001
1000
0002
0000
1000
2003
0000
3000
,
0000
0000
0000
0000
0001
0100
0000
0010
0000
1000
0000
0010
0000
1000
0000
0001
,
0000
1000
0100
1000
0100
0010
0000
0001
0000
0010
0000
0001
0000
1000
0000
0100
,
0000
0010
0001
1000
0010
1000
0000
0010
0000
0100
0000
0010
0000
0100
0000
0001
,
0000
1000
0001
1000
0001
0010
0000
0100
0000
0010
0000
0100
0000
1000
0000
0001
,
0000
1000
0100
0010
0001
0000
1000
0000
0010
0000
0100
0002
0000
0000
0013
0000
,
0010
0000
0100
2000
0000
0000
3010
0000
0010
0000
0100
0002
0000
0000
1003
0000
,
0001
0000
2001
0000
0000
0000
3001
0000
0100
0000
0010
2000
0000
0000
3100
0000
,
0100
0000
0010
0002
0000
0000
0103
0000
0100
0000
0010
2000
0000
0000
3001
0000
,
1000
0000
2001
0000
0000
0000
3001
0000
0010
0000
0100
2000
0000
0000
3010
0000
,
0010
0000
0100
0002
0000
0000
0013
0000
0010
0000
0100
2000
0000
0000
3001
0000
,
1000
0000
1002
0000
0000
0000
1003
0000
0100
0000
0010
0002
0000
0000
0103
0000
,
0100
0000
0010
2000
0000
0000
3100
0000
0100
0000
0010
0002
0000
0000
1003
0000
,
0001
0100
0010
1000
0001
0000
0010
0000
0001
0000
0010
0000
0100
0000
1000
0000
,
0100
1000
0010
1000
0010
1000
0001
0100
,
0001
1000
0100
1000
0100
0010
0001
0010
,
0001
0000
1000
0000
0110
0000
0000
0000
0110
0000
0000
0000
0001
0100
0010
1000
,
0001
0100
0010
1000
0001
1000
0001
1000
0000
0001
0000
0001
0000
0010
0100
0010
,
0000
0100
1000
0100
1000
0100
0010
0001
0000
1000
0000
1000
0000
0001
0100
0001
,
0000
1000
0010
1000
0010
0100
0010
0100
0000
0001
0000
0001
0000
1000
0010
1000
,
0000
0001
0100
0010
0100
0010
1000
0001
0000
0100
0000
0100
0000
0010
0100
0010
,
0000
1000
0010
0100
0001
1000
0010
0100
0000
0001
0000
0001
0000
1000
0100
1000
,
0000
0001
0010
0100
1000
0001
0010
0100
0000
0010
0000
0010
0000
0100
1000
0100
,
0000
0010
0001
1000
0100
0010
0001
0010
0000
0100
0000
0100
0000
1000
0001
1000
,
0000
0010
1000
0001
0100
0010
1000
0001
0000
0100
0000
0100
0000
0010
1000
0010
,
0000
1000
0001
0100
0001
0100
0001
1000
0010
1000
0010
0100
0001
1000
0100
0010
,
0001
1000
0100
0010
0001
0000
0000
0000
0000
0000
0000
0000
0000
0000
0000
0000
,
0000
0000
0000
0000
1000
0100
1000
0010
0000
0100
0010
0100
0001
0100
0010
1000
,
0000
0010
0100
0001
0100
0001
1000
0001
0000
1000
0001
1000
0100
1000
0100
0010
,
0000
0001
0010
0100
0010
0100
1000
0001
0000
0100
0001
1000
0010
1000
0001
1000
,
0000
0100
0010
0001
0010
0001
1000
0001
0000
1000
0010
0100
0001
0010
0100
1000
,
0001
0010
0100
1000
0001
0010
0001
0010
0000
0100
1000
0001
0100
0001
0100
0010
,
0000
1000
0001
0100
0010
1000
0010
1000
0000
0001
0100
0010
0100
0010
1000
0001
,
0000
0100
0001
0010
0001
1000
0001
1000
0000
0100
1000
0001
0100
0001
1000
0010
,
0000
1000
0100
0010
0001
1000
0001
0010
0000
0100
1000
0001
1000
0001
1000
0100
,
0010
0001
1000
0100
0010
0000
0001
0000
0011
0000
0001
1000
0001
1000
0100
1000
,
0001
1000
0100
1000
0001
0000
0100
0000
0101
0000
0001
0100
0001
1000
0001
1000
,
0001
0100
0001
1000
0001
0000
1000
0000
1010
0000
1000
0010
1000
0001
1000
0001
,
1000
0010
1000
0001
1000
0000
0001
0000
0011
0000
0001
1000
0001
0010
0001
0010
,
0001
1000
0001
0010
0001
1000
0001
0000
1000
0000
0001
0100
0001
0100
0010
0000
,
1000
0000
0001
0010
0100
0010
0100
0000
1000
0000
0001
0100
0001
1000
0100
0000
,
0010
0000
0001
1000
0010
0100
0001
0000
1000
0000
0001
0100
0010
1000
0010
0000
,
1000
0000
0001
1000
0010
0100
0010
0000
0100
0000
0001
0000
1000
0000
0010
0000
,
0100
0001
1001
0000
0000
0000
0000
0000
,
0000
0220
0000
0330
;
