#TITLE:IF YOU WERE HERE;
#SUBTITLE:;
#ARTIST:JENNIFER;
#TITLETRANSLIT:;
#SUBTITLETRANSLIT:;
#ARTISTTRANSLIT:;
#GENRE:;
#CREDIT:;
#MUSIC:IF YOU WERE HERE.mp3;
#BANNER:IF YOU WERE HERE.png;
#BACKGROUND:IF YOU WERE HERE-bg.png;
#CDTITLE:;
#SAMPLESTART:0.000;
#SAMPLELENGTH:0.000;
#SELECTABLE:YES;
#OFFSET:-0.507;
#BPMS:0.000=145.600;
#STOPS:;
#BGCHANGES:;
#FGCHANGES:;

//--------------- dance-single - HellKiteChaos ----------------
#NOTES:
     dance-single:
     HellKiteChaos:
     Challenge:
     14:
     0,0,0,0,0:
0000
0000
0000
0000
,
0000
0000
0000
0000
,
0000
0000
0000
0000
,
0000
0000
0000
0000
,
0000
0000
0000
0000
,
0000
0000
0000
0000
,
0000
0000
0000
0000
,
0000
0000
0000
0000
,
0001
0000
0010
0000
0001
0000
1000
0010
0000
1000
0000
0010
0100
0010
0100
0010
,
1000
0000
0010
0000
0100
0000
0001
0010
0000
0001
0000
0010
0100
0010
0100
0010
,
0100
0000
1000
0000
0100
0000
0010
0001
0000
0010
0000
0001
1000
0001
1000
0001
,
0100
0000
0010
0000
0100
0000
0001
1000
0000
1000
0000
1000
0100
1000
0100
0010
,
0001
0010
0011
0001
0100
0001
0010
0000
,
0100
1000
1010
1000
0100
1000
0010
0010
,
0100
0001
0100
1000
0100
0001
0100
0010
,
0100
0001
0010
0100
1000
0001
1001
0000
,
0010
0010
1000
0100
0010
0010
0001
0100
,
0010
0010
1000
0010
0010
0100
0001
0000
,
1000
0100
0001
0100
1000
0100
0001
0100
,
1100
0000
0000
0000
0011
0000
0000
0000
1000
0000
0010
0000
0100
0010
0100
0010
,
0100
0000
0001
0000
0010
0100
0000
0000
1000
0000
0010
0000
0100
0010
0000
0000
,
0100
0000
0001
0000
0010
0100
0000
0000
1000
0000
0010
0000
0100
0010
0100
0000
,
0001
0100
0101
0000
1000
0010
1010
0000
,
1000
0100
0010
0100
1000
0100
0010
0010
,
0010
0001
0100
0001
0100
0001
0100
0000
,
0010
1000
0010
1000
0010
1000
0100
0000
,
0010
0001
0010
0000
0001
0100
0001
0000
,
2000
0000
0000
0000
3020
0000
0000
0000
0130
0000
0000
0000
0001
0100
0001
0100
,
0001
0000
0010
0000
0100
1000
0100
0000
1000
0000
0010
0000
0100
0001
0100
0000
,
0001
0000
0010
0000
0100
0010
0100
0000
1000
0000
0001
0000
1001
0000
0000
0001
,
1000
0010
1010
0000
0100
0001
0101
0001
,
1000
0000
0100
0000
0100
0000
0100
0000
0010
0001
0010
0001
1000
0010
1000
0010
,
0100
0000
0001
0000
0010
0001
0010
0000
0100
0000
1000
0000
0010
1000
0010
0000
,
0100
0000
0010
0000
1000
0001
1000
0000
0100
0000
0010
0000
0100
0010
0100
0010
,
0001
0000
0100
0000
0010
0100
0000
0000
0001
0000
1000
0000
0100
0010
0000
0000
,
0001
0000
0001
0000
0100
0000
0100
0000
0010
1000
0001
0010
0001
1000
0010
1000
,
0100
0000
0100
0000
0100
0000
0010
0001
0000
0010
0000
0001
0100
0001
0100
0001
,
1000
0000
1000
0000
1000
0000
0010
0100
0000
0100
0000
0001
1000
0001
1000
0001
,
0010
0000
0010
0000
0010
0000
0100
1000
0000
1000
0000
0010
1000
0010
1000
0010
,
0100
0000
0010
0000
1000
0000
0001
0010
0000
0100
0000
0110
0000
0000
0010
0100
,
1000
0000
0001
0000
1000
0000
0010
0100
0000
0010
0000
0100
0001
0100
0010
1000
,
0010
0000
1000
0000
0001
0000
1000
0100
0000
0010
0000
0110
0000
0000
0010
0001
,
0100
0000
0010
0000
0100
0000
0001
1000
0000
1000
0000
0010
1000
0010
1000
0001
,
0010
0100
0010
0001
0010
0000
0000
0000
1000
0100
0010
0100
1000
0000
0000
0000
,
0102
1003
2100
3002
,
1003
0000
0000
0000
;
