#TITLE:Holic;
#SUBTITLE:;
#ARTIST:TaQ;
#TITLETRANSLIT:;
#SUBTITLETRANSLIT:;
#ARTISTTRANSLIT:;
#GENRE:;
#CREDIT:;
#MUSIC:Holic.mp3;
#BANNER:Holic.png;
#BACKGROUND:Holic-bg.png;
#CDTITLE:;
#SAMPLESTART:0.000;
#SAMPLELENGTH:0.000;
#SELECTABLE:YES;
#OFFSET:-0.041;
#BPMS:0.000=155.000;
#STOPS:;
#DISPLAYBPM:155.000;
#BGCHANGES:;
#FGCHANGES:;

//--------------- dance-single - HellKiteChaos ----------------
#NOTES:
     dance-single:
     HellKiteChaos:
     Challenge:
     16:
     0,0,0,0,0:
0000
0000
0000
0000
,
0000
0000
0000
0000
,
0000
0000
0000
0000
,
0000
0000
0000
0000
0000
0000
0000
0000
1001
0000
0001
1000
0001
0000
1000
0000
,
0100
0000
0010
0000
0001
1000
0001
0000
0100
0000
0010
0000
1000
0000
0001
0000
,
1000
0000
0100
0010
0100
0000
0010
0000
0001
0000
0100
0000
0001
0000
1000
0000
,
0010
0100
0010
0000
1000
0010
1000
0000
0001
0100
0001
0000
1000
0100
0010
0001
,
1000
0000
0001
0000
0100
0000
0010
0000
1000
0000
0100
0000
0010
0100
0010
0000
,
0001
0000
0100
0000
0010
0000
1000
0000
0100
0000
1000
0001
1000
0000
0001
0000
,
0100
0000
0010
0000
1000
0000
0100
0000
0010
0001
0010
0000
0001
0000
0100
0000
,
0010
1000
0001
1000
0100
0010
0001
0100
,
0000
0010
0100
0001
0000
1000
0100
0000
,
0010
0010
0001
0000
1001
0000
0000
1000
,
0010
1000
0000
0101
0000
0000
0001
1000
,
0100
0000
0010
0001
0010
0000
0100
1000
0100
0000
1000
0000
0001
0100
0010
0000
,
1000
0010
1000
0000
0001
0100
0001
0000
1000
0000
0001
1000
0100
0000
0010
0100
,
0010
0000
0100
1000
0100
0000
0010
0000
0001
1000
0100
0000
0010
0001
0010
0000
,
0100
0010
0100
0000
1000
0001
0010
0100
1000
0000
0001
0100
0010
0000
1000
0010
,
1000
0000
0001
0000
0100
0001
1000
0000
0100
1000
0100
0000
0010
0001
0010
0000
,
0100
0000
1000
0001
0010
0000
0100
1000
0001
0000
1000
0001
1000
0000
0010
0000
,
0100
0001
1000
0000
0010
0000
0100
0000
0000
0000
0000
0000
0101
0000
0001
0000
,
1000
0000
1100
0000
0000
0011
0001
1000
,
0000
1010
0000
0000
0110
0100
0001
0000
,
1001
0000
0000
1100
0100
0010
0000
0011
,
0000
0000
0000
0000
1000
0010
0100
0001
,
0010
0100
1000
0001
0100
0010
1000
0100
,
0010
0001
1000
0000
0010
0000
0100
0000
0001
0000
0010
0000
0100
0000
1000
0000
,
0001
0100
0010
0000
1000
0000
0001
0000
0010
0000
0100
0000
1000
0001
0100
0000
,
0010
0000
1000
0000
0100
0000
0010
0000
0001
0000
0100
0000
0010
1000
0100
0000
,
0010
0000
0001
0000
1000
0000
0010
0000
0100
0001
0010
0000
0100
0000
1000
0000
,
0010
0000
0100
0000
0000
0000
0001
0100
0000
0000
0010
1000
0000
0000
0001
0010
,
0000
0000
0100
1000
0000
0000
0001
0100
0010
1000
0010
1000
0010
0000
1000
0100
,
1000
0100
0010
0100
0010
0000
0001
0010
0001
1000
0001
1000
0100
0000
0010
0001
,
0100
0001
1000
0000
0001
1000
0100
1000
0001
0000
0100
0001
1000
0001
1000
0010
,
0100
0000
0010
1000
0010
1000
0001
0010
0100
0000
1000
0100
0010
0000
0001
1000
,
0010
1000
0010
1000
0001
0000
1000
0100
1000
0001
1000
0001
0010
0000
0100
1000
,
0010
1000
0010
0100
0010
0000
1000
0001
1000
0001
0100
0000
1001
0000
0001
0000
,
0000
0000
0101
0000
0100
0000
0000
0000
0110
0000
0010
0000
1000
0010
0100
0000
,
0000
0010
1000
0000
0000
0001
1000
0000
0000
0100
1000
0100
0010
0001
1000
0001
,
0010
0000
0100
1000
0001
0000
0100
0001
1000
0000
0010
1000
0010
0000
1000
0001
,
0100
0000
0010
1000
0010
1000
0001
0100
0001
1000
0100
1000
0001
0000
1000
0001
,
0010
0000
0100
1000
0100
0000
0010
0001
0100
0000
0010
1000
0010
0000
0100
0001
,
1000
0000
0001
1000
0100
1000
0001
1000
0001
0010
0100
1000
0001
0000
1000
0001
,
0100
0000
0010
1000
0010
0000
1000
0001
0010
0000
0100
1000
0100
0000
0010
0001
,
0100
0000
0010
1000
0001
0100
0001
0100
0010
1000
0001
1000
0100
0010
0001
1000
,
0100
0000
0010
0001
1000
0001
0100
0001
0100
0000
0010
1000
0001
0100
0001
1000
,
0100
0001
0100
1000
0010
1000
0001
0100
0010
1000
0100
0010
0001
0000
0001
0000
,
0101
0000
1010
1000
0001
0010
0100
0010
,
0110
0000
1100
1000
0010
1000
0001
1000
,
0011
0000
0110
0100
1000
0001
0100
0010
,
1010
0000
0000
0000
1100
0000
0101
0000
1100
0000
0000
0000
1000
0000
0010
1000
,
0010
0000
0100
0001
0100
0000
0001
1000
0100
0000
0010
0001
0010
0000
0100
1000
,
0100
0000
0010
0001
1000
0000
0010
0100
0001
0000
0010
0100
1000
0000
0001
0100
,
0010
0000
1000
0001
1000
0000
0001
0010
0100
1000
0020
0000
0000
0000
0000
0000
,
0030
0000
0000
0000
;
