#TITLE:HERO;
#SUBTITLE:;
#ARTIST:PAPAYA;
#TITLETRANSLIT:;
#SUBTITLETRANSLIT:;
#ARTISTTRANSLIT:;
#GENRE:;
#CREDIT:;
#MUSIC:HERO.mp3;
#BANNER:HERO.png;
#BACKGROUND:HERO-bg.png;
#CDTITLE:;
#SAMPLESTART:0.000;
#SAMPLELENGTH:0.000;
#SELECTABLE:YES;
#OFFSET:-0.427;
#BPMS:0.000=138.000;
#STOPS:;
#BGCHANGES:;
#FGCHANGES:;

//--------------- dance-single - HellKiteChaos ----------------
#NOTES:
     dance-single:
     HellKiteChaos:
     Challenge:
     13:
     0,0,0,0,0:
0000
0000
0000
0000
,
0000
0000
0000
0000
,
0000
0000
0000
0000
,
0000
0000
0000
0000
,
0002
0000
0000
1003
0000
1000
0010
0000
0020
0000
0030
0000
0100
0000
0001
0000
,
2000
0000
0000
3100
0000
0100
0010
0000
0020
0000
0030
0000
0001
0000
1000
0000
,
0200
0000
0000
0310
0000
0010
0001
0000
0002
0000
0003
0000
1000
0000
0001
0000
,
0200
0000
0000
0310
0000
0010
1000
0000
2000
0000
3000
0000
0001
0000
0100
0000
,
0010
0100
0010
1000
0001
0010
0000
0010
,
0100
0010
0001
1000
0100
0010
0000
0010
,
0000
0011
0000
0001
0000
1100
0000
1000
,
0001
0100
0010
1000
0001
0000
1001
0000
,
1000
0100
1000
0100
0010
0001
0000
0001
,
1000
0010
0100
0010
0100
0001
1000
0000
,
0101
0101
1010
1010
,
1000
0100
1000
0100
2000
0000
3001
0000
,
0101
0000
0100
0000
0001
0000
0100
0000
0010
0000
1000
0000
0010
0000
1000
0001
,
0100
0000
0001
1000
0010
0000
1000
0001
0100
0000
0010
0000
0100
0000
0010
0000
,
1010
0000
0010
0000
1000
0000
0010
0000
0100
0000
0001
0000
0100
0000
0001
1000
,
0010
0000
1000
0001
0100
0000
0001
1000
0010
0000
1000
0000
0100
0000
0010
0000
,
0011
0000
0010
0000
0001
0000
0010
0000
0100
0000
1000
0000
0100
0000
1000
0001
,
0010
0000
0001
1000
0100
0000
1000
0001
0010
0000
0100
0000
0010
0000
0200
0000
,
0300
2000
3000
0200
0300
0020
0030
0002
,
0003
0000
2000
0000
3000
0000
0020
0000
0030
0000
0100
0000
0010
0100
0010
0100
,
0001
0000
0000
0001
1000
0000
0100
0000
1000
0000
0000
1000
0001
0000
0100
0000
,
0001
0000
0000
1000
0010
0000
0100
0000
0010
0000
0100
0000
0001
0000
0001
0000
,
0001
0100
1000
0100
0001
0010
1000
0010
,
0001
0100
1000
0100
0001
0010
1000
0010
,
0001
0000
0000
0001
1000
0000
0100
0000
0010
0000
0000
0001
1000
0000
0010
0000
,
0100
0000
0000
0001
1000
0000
0100
0000
0010
0000
0000
0001
1000
0000
0010
0000
,
0100
0001
0100
1000
0100
0001
1000
0001
,
1000
0000
0010
0000
0001
0000
0010
0000
1000
0000
0001
0000
1000
0001
1000
0001
,
1000
0000
0100
0000
0010
0000
0001
1000
0001
0000
0100
0000
0010
0000
1000
0001
,
1000
0000
0100
0000
0010
0000
0001
1000
0001
0000
0100
0010
0100
0000
0001
1000
,
0001
0000
0010
0000
0100
0000
1000
0001
1000
0000
0010
0000
0100
0000
0001
0000
,
2000
0100
3100
0000
0002
0100
0103
0100
,
0001
0000
0010
0100
0010
0000
0001
0000
1000
0000
0010
0100
0010
0000
1000
0000
,
0001
0000
0010
0100
0010
0000
0001
0000
1000
0000
0010
0100
0010
0000
1000
0000
,
0001
0000
0010
0100
1000
0000
0001
0000
1000
0000
0010
0100
0001
0000
1000
0000
,
0001
0001
1000
1000
0010
0010
0110
0000
,
0000
0000
0100
0000
0001
0000
0100
0000
0010
0000
1000
0001
1000
0000
0000
0000
,
0000
0000
0001
0000
0010
0000
0100
0000
1000
0000
0010
0100
0010
0000
0000
0000
,
0000
0000
0100
0000
0001
0000
1000
0000
0010
0000
1000
0001
1000
0001
1000
0001
,
0200
0000
0300
0000
;
