#TITLE:GHOSTS (VINCENT DE MOOR REMIX);
#SUBTITLE:;
#ARTIST:TENTH PLANET;
#TITLETRANSLIT:;
#SUBTITLETRANSLIT:;
#ARTISTTRANSLIT:;
#GENRE:;
#CREDIT:;
#MUSIC:GHOSTS (VINCENT DE MOOR REMIX).mp3;
#BANNER:GHOSTS (VINCENT DE MOOR REMIX).png;
#BACKGROUND:GHOSTS (VINCENT DE MOOR REMIX)-bg.png;
#CDTITLE:;
#SAMPLESTART:0.000;
#SAMPLELENGTH:0.000;
#SELECTABLE:YES;
#OFFSET:-1.535;
#BPMS:0.000=138.004
,100.000=139.000
,104.000=138.000
;
#STOPS:;
#DISPLAYBPM:138.000;
#BGCHANGES:;
#FGCHANGES:;

//--------------- dance-single - HellKiteChaos ----------------
#NOTES:
     dance-single:
     HellKiteChaos:
     Challenge:
     15:
     0,0,0,0,0:
0000
0000
0000
0000
,
0000
0000
0000
0000
,
0000
0000
0000
0000
,
0000
0000
0000
0000
,
0202
0000
0000
0303
,
2020
0000
0000
3030
,
2200
0000
0000
3300
,
0022
0000
0000
0033
,
0002
0000
0000
0013
0000
0100
1000
0000
2000
0000
0000
3010
0000
0100
0001
0000
,
0002
0000
0000
0013
0000
0100
1000
0000
2000
0000
0000
3010
0000
0100
0001
0000
,
2000
0000
0000
3100
0000
0100
0010
0000
0002
0000
0000
0103
0000
0100
0010
0000
,
2000
0000
0000
3100
0000
0100
0010
0000
0002
0000
0000
0103
0000
0100
0010
0000
,
1000
0010
1000
0010
1000
0010
1000
0010
1000
0100
1000
0100
1000
0100
1000
0100
,
0010
0001
0010
0001
0010
0001
0010
0001
0100
0001
0100
0001
0100
0001
0100
0001
,
1000
0001
1000
0001
1000
0001
1000
0001
0100
0010
0100
0010
0100
0010
0100
0010
,
1000
0100
0010
0001
1000
0100
0010
0001
0100
0010
1000
0001
0100
0000
0000
0000
,
0001
0000
0100
0010
0000
0100
0010
1000
0001
0000
0010
0100
0000
0010
0100
1000
,
0001
0000
0100
0010
0000
0100
0010
1000
0001
0000
0010
0100
0000
0010
0100
1000
,
0001
0000
1000
0010
0000
0100
0001
1000
0001
0000
0001
0100
0000
0010
1000
0001
,
0010
0000
0100
0010
0000
0001
0100
0010
1000
0000
0010
0100
0000
0001
0010
0100
,
1000
0000
1000
0100
0000
0100
0010
0000
0001
0000
0001
0100
0000
0100
0010
0000
,
1000
0000
1000
0001
0000
0001
0010
0000
0100
0000
0010
0001
0000
0001
1000
0000
,
0010
0000
0010
0100
0000
0100
0001
0000
0010
0000
0010
0100
0000
0100
1000
0000
,
0001
0000
1000
0010
0000
0100
0001
0000
1000
0000
0001
0010
0000
0100
1000
0000
,
0002
0100
1000
0103
,
2000
0100
0001
3100
,
0002
0010
1000
0013
,
2000
0010
0001
3010
,
1000
0000
0010
1000
0000
0001
0100
0000
0001
0000
0010
0001
0000
1000
0100
0000
,
0010
0000
0001
0100
0000
0010
1000
0000
0100
0000
0010
0001
0000
1000
0100
0000
,
0010
0001
0010
0001
0010
0001
0010
0001
1000
0010
1000
0010
1000
0010
1000
0010
,
0100
0001
0100
0001
0100
0001
0100
0001
1000
0100
0010
0001
0100
0000
0000
0000
,
0001
0000
0100
0010
0000
0100
0001
0010
0001
0000
0100
0010
0000
1000
0100
1000
,
0010
0000
0100
0001
0000
0010
0001
0100
0010
0000
1000
0100
0000
1000
0010
0100
,
0001
0000
0010
0100
0000
1000
0100
0010
0001
0000
0100
0010
0000
1000
0010
0100
,
0001
0000
0010
0100
0000
1000
0010
0100
0001
0000
0010
0100
0000
1000
0100
0010
,
0001
0000
0001
0100
0000
0100
0010
0000
1000
0000
1000
0100
0000
0100
0010
0000
,
0001
0000
1000
0001
0000
0100
0010
0000
1000
0000
0001
1000
0000
0010
0100
0000
,
0001
0000
1000
0100
0000
0010
0001
0000
1000
0000
0001
0100
0000
0010
1000
0000
,
0001
0000
1000
0010
0000
0100
0001
0000
1000
0000
0001
0010
0000
0100
1000
0000
,
0002
0000
0010
0000
0003
0000
0010
0000
0001
0010
0100
1000
0100
0010
0001
0000
,
2000
0000
0010
0000
3000
0000
0010
0000
1000
0010
0100
0001
0100
0010
1000
0000
,
0002
0000
0100
0000
0003
0000
0100
0000
0001
0100
0010
1000
0010
0100
0001
0000
,
2000
0000
0100
0000
3000
0000
0100
0000
1000
0100
0010
0001
0010
0100
1000
0000
,
0001
0010
0001
0010
0001
0010
0001
0010
0100
1000
0100
1000
0100
1000
0100
0000
,
1000
0010
1000
0010
1000
0010
1000
0010
0100
0001
0100
0001
0100
0001
0100
0000
,
0010
1000
0001
0100
0010
1000
0001
0100
0010
1000
0001
0100
0010
1000
0001
1000
,
0001
0010
0100
1000
0001
0010
0100
1000
0010
0100
0001
0010
0100
1000
0001
0000
;
