#VERSION:0.83;
#TITLE:FRECKLES;
#SUBTITLE:(KCP Re-Edit);
#ARTIST:TIGGY;
#TITLETRANSLIT:FRECKLES-SOBAKASU;
#SUBTITLETRANSLIT:;
#ARTISTTRANSLIT:;
#GENRE:;
#CREDIT:;
#MUSIC:FRECKLES-SOBAKASU (KCP Re-Edit).mp3;
#BANNER:FRECKLES-SOBAKASU (KCP Re-Edit).png;
#BACKGROUND:FRECKLES-SOBAKASU (KCP Re-Edit)-bg.png;
#CDTITLE:;
#SAMPLESTART:56.700;
#SAMPLELENGTH:12.000;
#SELECTABLE:YES;
#OFFSET:-0.049;
#BPMS:0.000=150.000;
#STOPS:;
#SPEEDS:0.000=1.000=0.000=0;
#SCROLLS:0.000=1.000;
#TICKCOUNTS:0.000=4;
#TIMESIGNATURES:0.000=4=4;
#LABELS:0.000=Song Start,
12.000=Start
;
#COMBOS:0.000=1;
#DISPLAYBPM:150.000;
#ORIGIN:;
#PREVIEWVID:;
#JACKET:;
#CDIMAGE:;
#DISCIMAGE:FRECKLES-SOBAKASU (KCP Re-Edit)-char.png;
#BGCHANGES:;
#FGCHANGES:;

//--------------- dance-single - HellKiteChaos ----------------
#NOTEDATA:;
#STEPSTYPE:dance-single;
#DESCRIPTION:HellKiteChaos;
#DIFFICULTY:Challenge;
#METER:13;
#RADARVALUES:0,0,0,0,0;
#NOTES:
0000
0000
0000
0000
,
0000
0000
0000
0000
,
0000
0000
0000
0000
,
0000
0001
1000
0200
0000
1300
0001
0200
,
0000
0310
0000
0100
0000
0010
2002
3003
,
1000
0100
1000
0100
0010
0001
2000
3000
,
0001
0100
0001
0100
0010
1000
0002
0003
,
1000
0100
0010
0001
1000
0010
0100
0001
,
1000
0100
0001
0100
1000
0010
0100
0001
,
1001
0000
1000
0001
0100
0001
0010
0001
,
1000
0010
0000
0000
0010
0100
0000
0000
0100
0001
0000
0000
1001
0000
0000
0000
,
0001
0000
1000
0010
1000
0100
0010
0001
,
1000
0010
0100
0001
1000
0001
1001
0000
,
0000
0001
0100
0001
0100
0010
2000
3010
,
1000
0100
1000
0100
0010
0001
0020
0031
,
0100
1000
0100
0001
0010
1000
0010
0001
,
0100
0010
1000
0100
0010
0002
0000
1003
,
0001
0000
0001
1000
0100
1000
0010
0000
,
1000
0010
0000
0000
0010
0100
0000
0000
0100
0001
0000
0000
2002
0000
0000
0000
,
3003
0000
0001
0010
0100
0010
0001
1000
,
0100
0010
0100
1000
0001
0010
0100
1000
,
0001
0100
0010
0100
0001
0100
0010
0100
,
0001
0010
0100
0010
0001
0010
0100
1000
,
0001
0000
1000
0100
0000
0000
1000
0100
0000
0000
0010
0001
0000
0000
0010
0001
,
0000
0000
1000
0100
0000
0000
0010
0001
0000
0000
1000
0100
0000
0000
0010
0001
,
1000
0010
1000
0010
0100
0001
0100
0001
,
1000
0001
0002
1003
2000
3001
0002
1003
,
0001
0000
1000
0010
0000
0000
1000
0010
0000
0000
0100
0001
0000
0000
0100
0001
,
0000
0000
1000
0010
0000
0000
0100
0001
0000
0000
1000
0010
0000
0000
0100
0001
,
1000
0010
0100
0001
1000
0010
0100
0001
,
1000
0100
0010
0001
1000
0100
0010
0001
,
1001
0000
0001
1000
0010
0100
0001
0000
,
2000
0100
0100
0000
0001
0000
3010
0000
,
1000
0010
0100
0001
1000
0010
0100
0001
,
2000
0001
0001
0000
0100
0000
0010
0000
,
0002
3003
1002
2003
,
3001
0000
1000
0000
0010
0100
0010
0000
1000
0000
0001
0000
0010
0100
0010
0000
,
0100
0000
1000
0000
0001
1000
0001
0000
0100
0000
0010
0000
1000
0001
1000
0000
,
0100
0010
0001
0100
0001
0010
0100
1000
,
0002
0000
0203
0000
0320
1030
2000
3001
,
0012
0000
0000
0000
0013
0000
0001
0000
1000
0000
0001
0000
0010
0000
0001
1000
,
0100
0100
1000
0001
1000
0100
0010
0000
,
0011
0001
1000
0000
1010
1000
0001
0000
,
0110
0000
0100
0000
0001
0000
1000
0000
0001
0100
0001
0000
2000
0000
0000
0000
,
3010
0000
1000
0000
0001
0010
0100
0000
1000
0000
0001
0000
1000
0010
0100
0000
,
0001
0000
1000
0000
0100
0010
0001
0000
1000
0000
0001
0000
0100
0010
1000
0000
,
0001
0010
1000
0010
0001
0100
1000
0100
,
0002
0013
0020
0130
0200
1300
0001
1000
,
0002
0000
1003
1000
1000
0001
0100
0010
,
1010
0110
0101
1001
,
0001
0001
0001
0010
0100
1000
0100
0010
,
0011
0110
1100
1001
,
1000
0100
0010
0000
0001
0000
1000
0000
0001
0000
0100
0000
0010
0000
1000
0000
,
0001
0100
0010
0000
1000
0000
0001
0000
1000
0000
0100
0000
0010
0000
0001
0000
,
2000
0100
0010
3100
,
0002
0000
0103
0100
0010
1000
0001
0100
,
0220
0000
0330
0000
;
