#TITLE:exotic ethnic;
#SUBTITLE:;
#ARTIST:RevenG;
#TITLETRANSLIT:;
#SUBTITLETRANSLIT:;
#ARTISTTRANSLIT:;
#GENRE:Dance Dance Revolution 6th Mix -Max-,Dancing Stage Euromix 2;
#CREDIT:;
#MUSIC:exotic ethnic.mp3;
#BANNER:exotic ethnic.png;
#BACKGROUND:exotic ethnic-bg.png;
#CDTITLE:;
#SAMPLESTART:0.000;
#SAMPLELENGTH:0.000;
#SELECTABLE:YES;
#OFFSET:-0.030;
#BPMS:0.000=190.000;
#STOPS:;
#DISPLAYBPM:190.000;
#BGCHANGES:;
#FGCHANGES:;

//--------------- dance-single - HellKiteChaos ----------------
#NOTES:
     dance-single:
     HellKiteChaos:
     Challenge:
     14:
     0,0,0,0,0:
0000
0000
0000
0000
,
0000
0000
0000
0000
,
0001
0000
1000
0100
0000
1000
0010
0000
,
1000
0001
1000
0001
0000
0100
0010
0000
,
2000
3020
0230
0302
,
0023
0230
2300
3001
,
0001
0100
0010
1000
0001
0100
0010
0000
,
1000
0100
0010
0001
1000
0100
0010
0000
,
0002
0023
0230
2300
,
3002
0203
0320
1030
,
1010
0000
1000
0010
1000
0001
0100
0000
,
0011
0000
0001
0010
0100
1000
0100
0000
,
2000
3200
0320
0032
,
2003
3020
0230
0301
,
1001
0000
0100
0010
0100
0001
1000
0000
,
1001
0000
0100
0010
0100
1000
0001
0000
,
1000
0100
0000
0010
0001
0010
0000
0100
,
1000
0100
0000
0010
0001
0100
1000
0100
,
0001
0100
0000
0010
1000
0010
0000
0100
,
0001
0100
0000
0010
1000
0100
0001
0100
,
1000
0010
0000
0100
0001
0010
0000
0100
,
1000
0010
0000
1000
0010
0001
0010
1000
,
0100
1000
0000
0001
0010
1000
0000
0001
,
0100
1000
0000
0001
0010
0100
1000
0001
,
2000
3200
0320
0032
1003
0000
1000
0001
,
0000
0000
1000
0001
0200
0000
0302
0000
0023
0000
0230
0000
2300
0000
3020
0000
,
2030
3200
2300
3020
0230
0300
0001
0010
,
0000
0000
0100
1000
0020
0000
2030
0000
3200
0000
0320
0000
0032
0000
0203
0000
,
0302
0023
0032
0203
0320
0030
1000
0100
,
0000
0000
0010
0001
0200
0000
0302
0000
0023
0000
0032
0000
0203
0000
0320
0000
,
1030
1000
0000
0001
0100
0100
0000
0010
,
1000
1010
0101
1010
,
0101
0001
1000
0010
1000
0100
1000
0001
,
0100
0000
0002
0000
0023
0000
0230
0000
2300
0000
3020
0000
2030
0000
3001
0100
,
0001
0000
1000
0000
0100
0010
0100
0000
1000
0000
0010
0000
0100
0000
0000
0000
,
0001
0000
0010
0001
0010
0000
0010
0001
0010
0000
0001
0000
0100
0000
0010
0000
,
1010
1000
0001
0100
0001
0010
0001
1000
,
0010
0000
2000
0000
3200
0000
0320
0000
0032
0000
0203
0000
0302
0000
1003
0010
,
1000
0000
0001
0000
0010
0100
0010
0000
0001
0000
0100
0000
0010
0000
0000
0000
,
1000
0000
0100
1000
0100
0000
0100
1000
0100
0000
0010
0000
0001
0000
0000
0000
,
1000
0000
0010
0100
0010
0000
0010
0100
0010
0000
1000
0000
0001
0000
0000
0000
,
0000
0000
0001
0010
0001
0000
0001
0000
0000
0000
1000
0100
1000
0000
1000
0000
,
0000
0000
0001
0100
0001
0000
0001
0000
0000
0000
1000
0010
1000
0000
1000
0000
,
0000
0010
0100
0010
0100
0010
0100
0001
,
0010
0010
0010
0010
0110
0000
0110
0000
,
0200
0000
1000
0000
0010
0000
0301
1000
,
0020
0000
0001
0000
0100
0000
1030
0010
,
0002
0000
0100
0000
0010
0000
1003
0010
,
0200
0000
1000
0000
0010
0000
0301
0100
,
2000
0000
0100
0000
0001
0000
3100
0001
,
0020
0000
1000
0000
0001
0000
1030
0010
,
0001
0010
0010
0000
0110
0000
1001
0000
,
0000
0000
0110
0000
1001
0000
0000
0020
,
0000
0230
0000
0020
0000
0000
0330
0000
,
1000
0100
1000
0010
0001
0010
0100
0001
,
0010
1000
0001
0100
1000
0010
1000
0100
,
0010
1000
0010
0001
0100
0010
0001
0010
,
0100
1000
0100
0010
1000
0100
0001
1000
,
0010
0001
1000
0010
0001
1000
0100
0010
,
0001
0010
0100
0001
0010
0100
0010
0001
,
1000
0010
0100
0001
0010
1000
0010
0001
,
0100
0010
1000
0001
0100
1000
0001
0010
,
1000
0001
1000
0000
0001
0000
0100
0000
0010
1000
0010
0000
1000
0000
0001
0000
,
0010
0001
0010
0000
0001
0000
1000
0000
0100
1000
0100
0000
1000
0000
0001
0000
,
0010
0100
0010
0000
0001
0000
1000
0000
0010
0100
0010
0000
1000
0000
0001
0000
,
0100
0001
0100
0000
0010
0000
1000
0000
0010
1000
0010
0000
0100
0000
0001
0000
,
1000
0100
0001
0000
0100
0000
1000
0000
0001
0100
1000
0000
0100
0000
0001
0000
,
1000
0010
0001
0000
0010
0000
1000
0000
0001
0010
1000
0000
0010
0000
0001
0000
,
1000
0100
0001
0000
1000
0000
0001
0000
1000
0010
0001
0000
0000
0100
0000
0000
,
1000
0000
0000
0100
0000
0000
0001
0000
0000
0000
1000
0000
1001
0000
0000
0000
,
0020
2030
3002
0203
0320
2030
3002
0203
,
0020
0000
0000
0000
,
0330
0000
0000
0000
;
