#TITLE:END OF THE CENTURY;
#SUBTITLE:;
#ARTIST:NO.9;
#TITLETRANSLIT:;
#SUBTITLETRANSLIT:;
#ARTISTTRANSLIT:;
#GENRE:Dance Dance Revolution 3rd Mix,Dancing Stage Euromix 1;
#CREDIT:;
#MUSIC:END OF THE CENTURY.mp3;
#BANNER:END OF THE CENTURY.png;
#BACKGROUND:END OF THE CENTURY-bg.png;
#CDTITLE:;
#SAMPLESTART:0.000;
#SAMPLELENGTH:0.000;
#SELECTABLE:YES;
#OFFSET:-0.040;
#BPMS:0.000=171.000;
#STOPS:;
#DISPLAYBPM:171.000;
#BGCHANGES:;
#FGCHANGES:;

//--------------- dance-single - HellKiteChaos ----------------
#NOTES:
     dance-single:
     HellKiteChaos:
     Challenge:
     12:
     0,0,0,0,0:
0000
0000
0000
0000
,
0000
0000
0000
0000
,
0000
0000
0000
0000
,
0000
0000
0000
0000
,
1001
1001
0110
1001
,
0002
0023
0230
1300
,
1010
1010
0101
1001
,
0020
0000
0000
1030
0002
0000
0003
0000
,
1000
0010
0000
0010
0000
0100
0001
0100
,
0010
1000
0000
1000
0000
1000
0100
0010
,
0100
0010
0000
0001
0000
0010
0100
0010
,
0001
0100
0000
0100
0000
0010
1000
0001
,
1000
0100
0000
0100
0000
0010
0001
0100
,
1000
0100
0000
0100
0000
0010
1000
0001
,
0010
0100
0000
0100
0000
1000
0100
0001
,
0000
0101
0000
1100
0000
1001
1001
1001
,
0001
0100
0000
0100
0000
0010
0100
0010
,
1000
0001
0000
0001
0000
0010
0100
1000
,
0010
0100
0000
0100
0000
0010
1000
0010
,
1000
0001
0000
0001
0000
1000
0000
1000
,
0100
0010
0000
0010
0000
0001
0100
0010
,
1000
0010
0000
0010
0000
1000
0100
0010
,
0001
0100
0000
0010
0000
1000
0000
0100
,
0000
0010
0000
0001
0100
0010
1000
0001
,
0101
1100
1010
0011
,
1001
0000
0100
1001
0000
0010
0100
0010
,
1010
0011
0101
1100
,
0001
1000
0100
0001
0100
1000
0001
1000
,
0101
0000
0011
0000
0100
1000
1010
0000
,
0100
0000
1010
0000
0100
0001
0011
0000
,
0100
0110
1000
1001
,
0020
0000
0000
1030
0002
0000
0003
0000
,
1000
1200
0000
0302
0000
0103
1000
0100
,
0010
0002
0000
0203
0000
0310
1000
0010
,
0001
0020
0000
0230
0000
0301
0010
0100
,
1000
0002
0000
0023
0000
0230
0000
1300
,
0001
0200
0000
0320
0000
1030
0001
0100
,
0010
2000
0000
3002
0000
0103
0010
0100
,
0001
0020
0000
0230
0000
1300
0001
1000
,
0010
1000
0010
1000
0001
0100
0001
0100
,
0010
1010
0001
0101
,
1000
0010
0001
0010
1000
0010
0001
0010
,
1000
1010
0100
0101
,
1000
0100
0001
0100
1000
0100
0001
0100
,
1000
1100
0001
0011
,
0010
0100
1000
0010
0100
0001
0010
0100
,
2000
0000
3010
0100
0002
0000
0023
0000
,
0230
2300
0002
3003
,
1000
0100
0010
0100
1000
0100
0010
0100
,
1000
0010
0100
0010
1000
0010
0100
0010
,
0100
0001
0100
0010
0100
0001
0100
0010
,
1000
0001
0100
0010
1000
0001
0100
0010
,
1000
0100
1000
0100
0010
0001
0010
0001
,
1000
0010
0100
0001
0010
0100
1000
0000
,
0001
0000
0100
0010
2000
0000
3002
0000
,
0023
0230
2000
3300
,
1100
1100
1010
1100
,
0010
0001
0100
0000
0010
1000
0100
0000
,
0010
0001
1000
0010
,
0100
0000
0000
0001
1000
0001
0100
0010
,
0100
0110
0001
1001
,
0010
0100
1000
0000
0010
0100
0001
0000
,
1000
0000
0100
0000
0010
0000
0001
1000
,
1001
0000
0000
0010
0110
0000
0000
0001
,
1000
0100
0010
0100
1000
0010
0100
0001
,
2000
0000
3000
0000
;
