#TITLE:ECSTASY;
#SUBTITLE:;
#ARTIST:d-complex;
#TITLETRANSLIT:;
#SUBTITLETRANSLIT:;
#ARTISTTRANSLIT:;
#GENRE:Dance Dance Revolution 5th Mix,Dancing Stage Euromix 2;
#CREDIT:;
#MUSIC:ECSTASY.mp3;
#BANNER:ECSTASY.png;
#BACKGROUND:ECSTASY-bg.png;
#CDTITLE:;
#SAMPLESTART:0.000;
#SAMPLELENGTH:0.000;
#SELECTABLE:YES;
#OFFSET:-0.054;
#BPMS:0.000=145.300
,96.000=141.300
,101.000=133.300
,103.000=124.800
,105.000=145.300
,185.000=150.200
;
#STOPS:96.000=2.977
,185.000=6.322
;
#DISPLAYBPM:145.000;
#BGCHANGES:;
#FGCHANGES:;

//--------------- dance-single - HellKiteChaos ----------------
#NOTES:
     dance-single:
     HellKiteChaos:
     Challenge:
     12:
     0,0,0,0,0:
0000
0000
0000
0000
,
0000
0000
0000
0000
,
0000
0000
0000
0000
,
0000
0000
0000
0000
,
0010
0000
0000
1000
0000
0000
0100
0000
0010
0000
0001
0000
0000
0100
0000
0000
,
0001
0000
0000
0010
0000
0000
0100
0000
1000
0000
0001
0000
0000
1000
0000
0000
,
0010
0000
0000
0100
0000
0000
0010
0000
0100
0000
0001
0000
0000
1000
0000
0000
,
0001
0000
0000
0010
0000
0000
0100
0000
1000
0000
0100
0000
0010
0000
0001
0000
,
1000
0000
0100
0000
1000
0001
0100
0000
0000
0000
0010
1000
0000
0000
0010
0100
,
0000
0000
0001
0100
0001
0000
1000
0000
0100
0000
0000
0000
0110
0000
0000
0000
,
0011
0000
0001
0000
1000
0001
0010
0000
0000
0000
0100
1000
0000
0000
0100
0010
,
0000
0000
0100
1000
0001
0000
0100
0000
0101
0000
0000
0000
1010
0000
1000
0000
,
0001
0000
0100
0000
0010
1000
0001
0000
0000
0000
0100
0010
0000
0000
0100
0001
,
0000
0000
0100
0010
1000
0000
0001
0000
1001
0000
0000
0000
0001
0000
0010
0000
,
0001
0000
1000
0000
0010
1000
0001
0000
0000
0000
1000
0010
0000
0000
1000
0001
,
0000
0000
1000
0100
0010
0000
0001
0000
0011
0000
0001
0000
0010
0100
0010
0100
,
0010
0000
0100
0000
1000
0100
0010
0000
0000
0000
0001
0010
0000
0000
0001
1000
,
0000
0000
0001
0100
0001
0000
1000
0000
1001
0000
0000
0000
1000
0000
0010
0000
,
1000
0000
0001
0000
1000
0001
1000
0000
0000
0000
1000
0010
0000
0000
1000
0001
,
0000
0000
0100
0010
1000
0000
1000
0000
1001
0000
0001
0000
1000
0000
0001
0000
,
0100
0010
0000
0010
1000
0001
0000
1000
,
0001
0010
0000
0001
1000
0100
0000
0010
,
0001
1000
0001
1000
0010
0100
0010
0100
,
0001
0010
0100
1000
0100
0010
0001
0100
,
1001
0100
0000
0000
,
0000
0000
0000
0000
,
0000
0000
1001
0000
0001
0100
0000
0001
,
0000
1000
0000
0100
0010
0001
0000
0000
,
1000
0000
0001
0000
1000
0010
0000
0100
,
0000
0001
0000
0010
0100
1000
0000
0000
,
0001
0000
1000
0010
0100
0001
0100
0001
,
0010
0100
1000
0001
0100
0001
1000
0100
,
1000
0001
0010
0100
1000
0010
1000
0001
,
0010
0001
1000
0010
0100
0001
0010
0100
,
1000
0000
0002
0000
0000
0203
0000
0000
,
0320
0000
0000
1030
0010
1000
0000
0001
,
0010
0001
0000
1000
0100
1000
0000
0001
,
0100
0001
0000
1000
0010
0100
0000
0001
,
0010
0000
0100
0000
1000
0000
0000
1000
0000
0000
1000
0000
0000
0000
0000
0000
,
0000
0001
0000
0000
0100
0000
0000
0100
0000
0000
0100
0000
0000
0000
0010
0000
,
0000
1000
0000
0000
0010
0000
0000
0010
0000
0000
0010
0000
0000
0000
0000
0000
,
0000
0100
0000
0000
0001
0000
0000
0001
0000
0000
0001
0000
0000
0000
1000
0000
,
0000
1000
0000
0000
1000
0000
0100
0000
0001
0000
0100
0000
1000
0000
0100
0000
,
0001
0100
0010
0100
0010
0100
0001
0100
,
1000
0000
0001
0100
0001
0100
0010
0100
,
1000
0100
0010
0100
0001
0010
0100
1000
,
0001
0000
1000
0000
1001
0000
0000
0000
0010
0000
0000
0010
0000
0000
0010
0000
,
0000
1000
0000
0000
0100
0000
0000
0000
0010
0000
0000
0010
0000
0000
0010
0000
,
0000
0001
0000
0000
0100
0000
0000
0000
0110
0000
0010
0000
1001
0000
0000
0000
,
0100
1000
0100
0010
0011
0001
1100
0000
,
0001
0100
0001
0100
0010
1000
0000
1000
,
0001
0100
0010
0000
1000
0100
1000
0010
,
0100
0001
0010
0000
0100
1000
0100
1000
,
0001
0100
0001
1000
0100
1000
0001
0010
,
0001
0000
1000
0000
0010
0100
0010
0100
0020
0000
0000
0000
0000
0000
2030
0000
,
0000
3200
0000
0000
,
0300
0000
0000
0000
;
