#TITLE:DXY!;
#SUBTITLE:;
#ARTIST:TaQ;
#TITLETRANSLIT:;
#SUBTITLETRANSLIT:;
#ARTISTTRANSLIT:;
#GENRE:Dance Dance Revolution 5th Mix,Dancing Stage Euromix 2;
#CREDIT:;
#MUSIC:DXY!.mp3;
#BANNER:DXY!.png;
#BACKGROUND:DXY!-bg.png;
#CDTITLE:;
#SAMPLESTART:0.000;
#SAMPLELENGTH:0.000;
#SELECTABLE:YES;
#OFFSET:-0.040;
#BPMS:0.000=148.000;
#STOPS:;
#DISPLAYBPM:148.000;
#BGCHANGES:;
#FGCHANGES:;

//--------------- dance-single - HellKiteChaos ----------------
#NOTES:
     dance-single:
     HellKiteChaos:
     Challenge:
     16:
     0,0,0,0,0:
0000
0000
0000
0000
,
0000
0000
0000
0000
,
2002
3003
0000
0000
,
2002
3003
0000
0000
,
2001
0100
3000
0100
0000
0100
0000
0100
,
1002
0100
0003
0100
0000
0100
0000
0100
,
2001
0100
3000
0100
0000
0100
0000
0100
,
1001
0000
0000
0000
0000
0000
2000
3000
0000
0000
0020
0030
0000
0000
0200
0300
0000
0000
0001
0000
0100
0000
0001
0000
1000
0000
0100
0000
1000
0000
0001
0000
,
2000
0000
3001
1000
0001
0000
1000
0001
0100
0000
0001
0000
1000
0000
0010
0000
,
0210
0000
0310
0100
0001
0000
1000
0001
1000
0000
0100
0000
0010
0000
0001
0000
,
2001
0000
3001
1000
0100
0000
0010
0100
0010
0000
0001
0000
0100
0000
0010
0000
,
0210
0000
0310
1000
0010
0000
0100
0001
1000
0000
0001
0000
1000
0000
0001
0000
,
1002
0000
1003
0100
0010
0000
0100
0010
0100
0000
1000
0000
0001
0000
0100
0000
,
0201
0000
0301
1000
0010
0000
1000
0010
1000
0000
0001
0000
0010
0000
0100
0000
,
2100
0000
3100
1000
0001
0000
0010
0001
0010
0000
0001
0000
1000
0000
0001
0000
,
0000
0000
1000
0100
0010
0000
0001
1000
0000
0000
0001
0010
0100
0000
1000
0001
,
2000
0000
3001
1000
0010
0000
0100
0000
0001
0000
0010
0000
0100
0000
1000
0000
,
0002
0000
1003
0001
0010
0000
0100
0000
1000
0000
0001
0000
0100
0000
0010
0000
,
2000
0000
3001
1000
0010
0000
0100
0000
0001
0000
0010
0000
0100
0000
1000
0000
,
0002
0000
1003
0001
0010
0000
0100
0000
1000
0000
0010
0000
0100
0000
0001
0000
,
2001
0000
3001
1000
0010
0000
0100
0000
0010
0000
1000
0000
0100
0000
0010
0000
,
0120
0000
0130
0010
0001
0000
1000
0000
0010
0000
0100
0000
0010
0000
1000
0000
,
2001
0000
3001
0010
0100
0000
1000
0000
0001
0000
0100
0000
0010
0000
0100
0000
,
0102
0000
0103
0001
1000
0001
1000
0100
0000
0100
1000
0001
0100
0001
1000
0010
,
1000
0000
1000
0000
0010
1000
0010
1000
0010
1000
0100
0000
0010
0001
0010
0000
,
0002
0000
1003
0000
0010
0100
0010
0100
0010
0100
0001
0000
1000
0001
0100
0000
,
0010
0000
1000
0000
0001
0010
0001
0010
0001
0010
0100
0000
1000
0001
0010
0000
,
0100
0000
1000
0000
0001
0100
0001
0100
0001
0100
0010
0000
1000
0001
0010
0000
,
0110
0000
0011
0000
0001
0010
0001
0010
0001
0010
0100
0000
1000
0001
0100
0000
,
0010
0000
1000
0000
0010
1000
0010
1000
0010
1000
0001
0000
0100
0001
1000
0000
,
0100
0000
0010
0000
0100
0010
0100
0010
0100
0010
0001
0000
1000
0001
0010
0000
,
0100
0000
1000
0000
0010
0100
0010
0100
0010
0100
0010
0000
1000
0010
0100
0000
,
0101
0000
0101
0000
0001
0100
0001
0100
0001
0100
0010
0000
1000
0010
1000
0010
,
1000
0000
0001
0000
0010
0100
0010
0100
0010
0100
1000
0000
0001
0100
0001
0100
,
0010
0000
1000
0000
0010
0100
0010
0100
0010
0100
0001
0000
1000
0001
1000
0001
,
0010
0000
0100
0000
1000
0001
1000
0001
1000
0001
0100
0000
0010
1000
0001
0100
,
0010
0000
0100
0000
0010
0100
0010
0100
0010
0100
0001
0000
1000
0010
1000
0010
,
0100
0000
0001
0000
1000
0100
1000
0100
1000
0100
0010
0000
0001
1000
0100
1000
,
0001
0000
1000
0000
0010
0100
0000
0100
0000
0010
0100
0000
0010
0100
0001
1000
,
0010
1000
0100
0010
0001
0100
0010
1000
0001
0010
0100
1000
0002
0000
0000
0000
,
1003
0000
0001
0000
0010
0001
1000
0100
0010
0001
0010
0000
0100
1000
0001
1000
,
0100
0000
1000
0000
0010
1000
0001
0100
0010
1000
0001
0000
1000
0100
0010
0001
,
1000
0000
0001
0000
0100
0001
1000
0100
0010
0001
1000
0000
0010
0100
0001
1000
,
0010
0000
0100
0000
0001
1000
0100
0010
0001
0100
0010
0000
1000
0001
0010
0001
,
0010
0000
0100
0000
1000
0100
0010
0001
0010
0100
1000
0000
0001
0100
0010
1000
,
0010
0000
0100
0000
0001
0010
0100
1000
0100
0010
0001
0000
1000
0010
0100
0001
,
1000
0000
0001
0000
0010
0100
1000
0010
0100
0001
1000
0000
0100
0010
0001
1000
,
1001
0000
0000
0000
0010
0000
0100
0000
0010
0000
0000
1001
0000
0000
0000
0000
,
1001
0000
1000
0000
0010
1000
0001
1000
0100
0010
0001
0000
1000
0100
0001
0100
,
1000
0000
1001
0000
0001
0010
0100
1000
0010
0100
0001
0000
1000
0010
0001
0010
,
1000
0000
0101
0000
0010
0100
0001
1000
0010
0100
0001
0000
1000
0010
0001
0010
,
1000
0000
1010
0000
0010
0100
0001
1000
0100
0010
0001
0000
1000
0100
0010
0100
,
1000
0000
1100
0000
0100
0010
0001
0010
1000
0010
0001
0000
1000
0100
0001
0100
,
1000
0000
0001
0000
0010
0100
0010
0001
0100
0010
0100
0000
0010
1000
0100
0010
,
0001
0000
1000
0000
0001
0100
1000
0100
0001
1000
0001
0000
1000
0100
0010
0001
,
1000
0010
0100
0001
1000
0010
0100
0001
1000
0100
0001
0100
1000
0010
0100
0001
,
1000
0000
1000
0000
1000
0110
0001
0000
,
1000
0000
1000
0000
1000
0110
0001
0000
,
1000
0000
1000
0000
1000
0110
0001
0000
,
1000
0000
1000
0000
1000
0110
0001
0000
,
1000
0000
1000
0000
1000
0110
0001
0000
,
1000
0000
1000
0000
1000
0110
0001
0000
,
1000
0000
1000
0000
1000
0110
0001
0000
,
1000
0000
0000
0001
0000
0001
0000
0001
0000
0001
0100
1000
0100
0001
0100
0000
;
