#TITLE:DROP THE BOMB;
#SUBTITLE:;
#ARTIST:Scotty D.;
#TITLETRANSLIT:;
#SUBTITLETRANSLIT:;
#ARTISTTRANSLIT:;
#GENRE:;
#CREDIT:;
#MUSIC:DROP THE BOMB.mp3;
#BANNER:DROP THE BOMB.png;
#BACKGROUND:DROP THE BOMB-bg.png;
#CDTITLE:;
#SAMPLESTART:0.000;
#SAMPLELENGTH:0.000;
#SELECTABLE:YES;
#OFFSET:-0.135;
#BPMS:0.000=150.145;
#STOPS:;
#DISPLAYBPM:150.000;
#BGCHANGES:;
#FGCHANGES:;

//--------------- dance-single - HellKiteChaos ----------------
#NOTES:
     dance-single:
     HellKiteChaos:
     Challenge:
     13:
     0,0,0,0,0:
0000
0000
0000
0000
,
0000
0000
0000
0000
,
0000
0000
0000
0000
1000
0000
0100
0000
0010
0000
0002
0000
0000
1003
0000
0010
,
0100
0000
0100
0000
0001
0000
0010
0000
0100
0000
2000
0000
0000
3001
0000
0100
,
0010
0000
0010
0000
1000
0000
0001
0000
0100
0000
0020
0000
0000
1030
0000
1000
,
0001
0001
2002
0000
0000
0000
0000
0000
,
0000
0000
0000
0000
,
3003
0000
0000
0000
0001
0100
0010
0100
0010
0000
1000
0001
0000
1000
0100
0000
,
0010
0000
0010
0000
0001
0000
0001
0100
0000
0100
0010
0000
1000
0000
0001
0000
,
1000
0000
0100
0010
0001
0000
1000
0001
1000
0000
0001
0000
0100
0000
0010
0000
,
1000
0000
0001
0000
0100
0001
0000
0100
0000
0001
0000
1000
0000
0100
0000
1000
,
0001
1000
0001
0100
0010
0100
0010
1000
,
0100
0010
0100
0010
0001
1000
0100
0010
,
0001
1000
0010
0100
0010
0100
0001
1000
,
0001
0000
1000
0000
0010
0000
0100
0000
0001
0000
0010
0000
0100
1000
0000
0001
,
0010
0000
0100
0000
0120
0000
0100
0000
0230
0000
2300
0000
3002
0000
0000
0203
,
0000
0310
1001
0100
0010
0110
0000
0110
,
0000
0110
0100
0001
1000
0100
0010
0001
,
1000
0000
0100
0000
0010
0001
0000
1000
0001
1000
0000
0001
0100
0000
0100
0000
,
0100
0100
0120
0100
0130
0000
0010
0100
,
0001
1000
1001
0000
1000
0110
0000
0110
,
0000
0100
0001
0010
0100
1000
0010
0100
,
0001
0000
1000
0001
1000
0000
0001
0000
0100
0010
0100
0000
0010
0000
1000
0000
,
0001
0000
1000
0000
0001
0000
0010
0000
0100
0000
2000
0000
0000
3001
0000
0100
,
0010
0000
0010
0000
1000
0000
0100
0000
0010
0000
0002
0000
0000
1003
0000
0010
,
0100
0000
0100
0000
0001
0000
0100
0000
0010
0000
2000
0000
0000
3001
0000
0010
,
0100
0000
0100
0000
1000
0000
0010
0000
0100
0000
0002
0000
0000
1003
0000
0100
,
0010
0000
0010
0000
0001
0000
0010
0000
0100
0000
2000
0000
0000
3001
0000
0100
,
0010
0100
0010
0000
1000
0000
0100
0000
0010
0000
0002
0000
0000
1003
0000
0010
,
0100
0010
0100
0000
0001
0000
0100
0000
0010
0000
2000
0000
0000
3001
0000
0010
,
0100
0010
0100
0000
1000
0000
0010
0000
0100
0000
0002
0000
0000
1003
0000
0100
,
0010
0100
0010
0000
2002
0000
0000
0000
0000
0000
0000
0000
0000
0000
0000
0000
,
3003
0000
0000
0000
2001
0000
0000
3100
0000
0000
1100
0000
0011
0000
0000
0000
,
0000
0000
0000
0000
1002
0000
0000
0103
0000
0000
0101
0000
1010
0000
0000
0000
,
0000
0000
0000
0000
2010
0000
0000
3001
0000
0000
0011
0000
1100
0000
0000
0000
,
0000
0000
0000
0000
2100
0000
0000
3001
0000
0000
0101
0000
1010
0000
0000
0000
,
0000
1001
0001
0001
,
1000
0010
0110
0000
0010
1001
0000
1001
,
0000
1000
0100
0010
0001
0010
0100
1000
,
0001
0100
0010
1000
0010
0100
0001
1000
,
0100
0010
1001
0000
0001
0000
1000
0000
,
0001
0010
0110
0000
0100
0110
0000
1001
,
0000
0110
0100
0001
1000
0010
0100
0001
,
1000
0000
0100
0000
0010
0001
0010
0000
0001
1000
0001
0000
1000
0100
1000
0100
,
1000
0100
1000
0100
2000
0000
0000
0100
0000
0000
0100
0000
3100
0000
0000
0000
,
0000
0000
0000
0000
0002
0000
0000
0010
0000
0000
0010
0000
0013
0000
0100
0000
,
0010
0000
0100
0000
1000
0000
0100
0000
0010
0000
0002
0000
0000
1003
0000
0010
,
0100
0000
0100
0000
0001
0000
0010
0000
0100
0000
2000
0000
0000
3001
0000
0100
,
0010
0000
0010
0000
1000
0000
0010
0000
0100
0000
0002
0000
0000
1003
0000
0100
,
0010
0000
0010
0000
0001
0000
0100
0000
0010
0000
2000
0000
0000
3001
0000
0010
,
0100
0000
0100
0000
1000
0000
0100
0000
0010
0000
0002
0000
0000
1003
0000
0010
,
0100
0010
0100
0000
0001
0000
0010
0000
0100
0000
2000
0000
0000
3001
0000
0100
,
0010
0100
0010
0000
1000
0000
0010
0000
0100
0000
0002
0000
0000
1003
0000
0100
,
0010
0100
0010
0000
0001
0000
0100
0000
0001
0000
0010
0000
0000
0110
0000
0100
,
1000
0000
1000
0000
0100
0000
1000
0000
0010
0000
1000
0000
0000
1001
0000
0001
,
0100
0000
0000
0100
0000
0000
0010
0000
1000
0000
0001
0000
0100
0000
0010
0000
1000
0000
0001
0000
0010
0000
0100
0000
,
1000
0001
0010
0000
0000
0000
2002
0000
0000
0000
0000
0000
,
3003
0000
0000
0000
;
