#TITLE:DO IT ALL NIGHT;
#SUBTITLE:;
#ARTIST:E-ROTIC;
#TITLETRANSLIT:;
#SUBTITLETRANSLIT:;
#ARTISTTRANSLIT:;
#GENRE:Dance Dance Revolution 3rd Mix,Dancing Stage Euromix 1;
#CREDIT:;
#MUSIC:DO IT ALL NIGHT.mp3;
#BANNER:DO IT ALL NIGHT.png;
#BACKGROUND:DO IT ALL NIGHT-bg.png;
#CDTITLE:;
#SAMPLESTART:0.000;
#SAMPLELENGTH:0.000;
#SELECTABLE:YES;
#OFFSET:-2.220;
#BPMS:0.000=142.990;
#STOPS:;
#DISPLAYBPM:143.000;
#BGCHANGES:;
#FGCHANGES:;

//--------------- dance-single - HellKiteChaos ----------------
#NOTES:
     dance-single:
     HellKiteChaos:
     Challenge:
     13:
     0,0,0,0,0:
0000
0000
0000
0000
,
0000
0000
0000
0000
,
0000
0000
0000
0000
,
0000
0000
0000
0020
0000
1030
0100
0000
,
0100
0000
0000
0020
0000
0031
0100
0000
,
0100
0000
0000
0010
1000
0010
1000
0001
,
0000
0010
0001
0100
0001
1000
0100
1000
,
0000
0002
0000
0000
0003
1000
0100
0010
,
0001
0000
1000
0000
0001
0000
1000
0001
0000
0100
0001
1000
0001
0000
1000
0000
,
0100
0000
1000
0000
0001
0000
1000
0001
0000
0010
0001
1000
0001
0000
0100
0000
,
0010
0000
1000
0000
0001
0000
0100
0010
0000
1000
0010
0100
0010
0000
1000
0000
,
0001
0000
0010
0000
0100
0000
0010
0100
0000
1000
0010
0100
0010
0000
0100
0000
,
0001
0000
0100
0000
1000
0000
0100
0001
0000
1000
0001
1000
0001
0000
1000
0000
,
0010
0000
0001
0000
0010
0000
1000
0001
0000
0100
0010
0100
0010
0000
1000
0000
,
0100
0000
0001
0000
0100
0000
1000
0001
0000
0100
0010
1000
0001
0000
0100
0000
,
0010
0100
0010
0100
0010
0100
1001
0000
,
0001
0001
0100
0100
,
0010
1000
0010
1000
0001
0010
0001
0010
,
0100
0100
1000
1000
,
0010
1000
0001
0010
0100
1000
0100
0010
,
0001
0001
1000
1000
,
0010
0100
0001
0100
0001
1000
0001
1000
,
0010
0010
0010
0000
1000
1000
1000
0000
,
0001
0001
0001
0000
0100
0000
0010
0000
,
2002
0000
0000
3003
,
0001
0000
0100
0000
0010
0000
0100
0000
0001
0000
0100
0000
0010
1000
0010
0000
,
1000
0000
0100
0000
0010
0000
0100
0000
1000
0000
0100
0000
0010
0100
0010
0000
,
0001
0000
1000
0000
0010
0000
1000
0000
0001
0000
1000
0000
0010
0100
0010
0000
,
1000
0000
0001
0000
0100
0000
0001
0000
1000
0000
0001
0000
0100
0000
0001
1000
,
0100
0000
0010
0000
0100
0000
0001
0000
0100
0000
0010
0000
0100
1000
0100
0000
,
1000
0000
0010
0000
0100
0000
0010
0000
0001
0000
0010
0000
0100
0010
0100
0000
,
0001
0000
1000
0000
0010
0100
0010
0000
1000
0000
0001
0000
0010
0100
0010
0000
,
0001
1000
0000
1000
0000
0001
0100
0100
,
0100
0000
0001
0000
1000
0001
1000
0000
0100
0000
1000
0000
0010
0100
0010
0000
,
1000
0000
0001
0000
0010
0001
0010
0000
0100
0000
1000
0000
0001
0100
0001
0000
,
1000
0000
0010
0000
0100
0010
0100
0000
0001
0000
1000
0000
0010
0100
0010
0000
,
1000
1000
0000
0001
0000
1000
0100
0010
,
0001
0000
1000
0000
0001
0010
0100
0000
1000
0000
0001
0000
1000
0010
0100
0000
,
0001
0000
1000
0000
0100
0010
0001
0000
1000
0000
0001
0000
0100
0010
1000
0000
,
0001
0000
0010
0000
0100
1000
0001
0000
0100
0000
0010
0000
1000
0001
0010
0000
,
0100
1000
0100
1000
0100
1000
0100
0010
,
0001
0000
1000
0000
0001
0000
1000
0001
0000
0100
0001
1000
0001
0000
1000
0000
,
0100
0000
1000
0000
0001
0000
1000
0001
0000
0010
0001
1000
0001
0000
0100
0000
,
0010
0000
1000
0000
0001
0000
0100
0010
0000
1000
0010
0100
0010
0000
1000
0000
,
0001
0000
0010
0000
0100
0000
0010
0100
0000
1000
0010
0100
0010
0000
0100
0000
,
0001
0000
0100
0000
1000
0000
0100
0001
0000
1000
0001
1000
0001
0000
1000
0000
,
0010
0000
0001
0000
0010
0000
1000
0001
0000
0100
0010
0100
0010
0000
1000
0000
,
0100
0000
0001
0000
0100
0000
1000
0001
0000
0100
0010
1000
0001
0000
0100
0000
,
0002
1000
1000
1000
1000
1000
1000
1000
,
2003
0000
0000
0002
,
0000
0000
0000
3003
;
