#VERSION:0.83;
#TITLE:DAM DARIRAM;
#SUBTITLE:;
#ARTIST:JOGA;
#TITLETRANSLIT:;
#SUBTITLETRANSLIT:;
#ARTISTTRANSLIT:;
#GENRE:Dance Dance Revolution 3rd Mix,Dancing Stage Euromix 1;
#CREDIT:;
#MUSIC:DAM DARIRAM.mp3;
#BANNER:DAM DARIRAM.png;
#BACKGROUND:DAM DARIRAM-bg.png;
#CDTITLE:;
#SAMPLESTART:54.340;
#SAMPLELENGTH:12.000;
#SELECTABLE:YES;
#OFFSET:-1.090;
#BPMS:0.000=142.370;
#STOPS:;
#SPEEDS:0.000=1.000=0.000=0;
#SCROLLS:0.000=1.000;
#TICKCOUNTS:0.000=4;
#TIMESIGNATURES:0.000=4=4;
#LABELS:0.000=Song Start;
#COMBOS:0.000=1;
#DISPLAYBPM:142.000;
#ORIGIN:;
#PREVIEWVID:;
#JACKET:;
#CDIMAGE:;
#DISCIMAGE:;
#BGCHANGES:;
#FGCHANGES:;

//--------------- dance-single - HellKiteChaos ----------------
#NOTEDATA:;
#STEPSTYPE:dance-single;
#DESCRIPTION:HellKiteChaos;
#DIFFICULTY:Challenge;
#METER:13;
#RADARVALUES:0,0,0,0,0;
#NOTES:
0000
0000
0000
0000
,
0000
0000
0000
0000
,
0000
0000
0000
0000
,
0000
0000
0000
0000
,
1000
0001
0000
1000
0001
0000
1000
0001
0000
1000
0001
0000
1000
0000
0002
0100
,
0000
0103
0000
0010
0100
0000
0010
0100
0000
0010
0100
0000
0010
0000
2000
0100
,
0000
3100
0000
0010
0001
0000
0010
0001
0000
1000
0100
0000
1000
0000
0001
0000
,
2002
0000
0000
3003
,
0001
0000
2000
0100
0000
0000
0001
0000
0000
3200
0000
0000
0310
0000
0001
0000
,
1000
0000
0002
0100
0000
0000
1000
0000
0000
0203
0000
0000
0310
0000
1000
0000
,
0100
0000
0020
0001
0000
0000
0100
0000
0000
0032
0000
0000
1003
0000
0001
0000
,
0010
0000
0200
1000
0000
0000
0010
0000
0000
1300
0000
0001
1000
0000
0001
0000
,
0100
0000
0020
1000
0000
0000
0100
0000
0000
2030
0000
0000
3001
0000
1000
0000
,
0100
0000
0020
0001
0000
0000
0100
0000
0000
0032
0000
0000
0103
0000
0010
0000
,
1000
0000
0002
0100
0000
0000
1000
0000
0000
0203
0000
0000
0310
0000
0100
0000
,
0010
0000
2000
0100
0000
0000
0001
0000
0000
3100
0000
0000
1001
0000
0000
0000
,
1000
0000
0100
0000
1000
0000
0100
0000
1000
0000
0100
0000
1000
0000
0100
0010
,
0001
0000
0010
0000
0001
0000
0010
0000
0001
0000
0010
0000
0001
0000
1000
0001
,
0100
0000
0001
0000
0100
0000
0001
0000
0100
0000
0001
0000
0100
0000
0010
1000
,
0001
0000
1000
0000
0100
0000
1000
0000
0001
0000
0100
0000
0010
0000
0100
0010
,
0100
0000
0010
0000
1000
0000
0001
0000
0010
0000
0100
0000
0010
0000
0100
1000
,
0001
0000
0100
0000
0010
0000
1000
0000
0001
0000
0100
0000
0010
0000
1000
0001
,
1000
0000
0001
0000
0100
0000
0010
1000
0010
0000
1000
0000
0001
0000
0010
0001
,
0010
0000
0001
0000
1000
0000
0001
0000
0100
0010
0100
0010
0100
0000
0001
0000
,
2001
0000
3010
1000
0100
1000
0010
2000
,
0000
0000
3001
0010
0001
0100
0001
0020
,
0000
0000
0130
2000
0000
3001
0000
0002
,
0000
0103
0010
0000
1000
0001
1000
0001
,
0210
0000
1300
0001
1000
0100
1000
0002
,
0000
0000
0103
0001
1000
0001
0100
0020
,
0000
2030
0000
3002
0000
0203
0000
0320
,
0000
2030
0002
0000
3003
0010
0010
0010
,
M002
0103
M010
0100
M002
0013
M100
0010
,
M002
0103
M010
0001
M010
0100
M010
0001
,
M020
0130
M001
0010
M100
0010
M001
0220
,
0000
0000
0330
0000
0000
0100
0100
0100
,
200M
3010
010M
0010
200M
3100
001M
0100
,
200M
3010
010M
1000
010M
0010
010M
1000
,
020M
0310
100M
0100
001M
0100
100M
0220
,
0000
0000
0000
0000
0330
0000
0000
0001
2000
0000
0002
0000
0000
0000
3003
0000
,
0001
0000
2000
0100
0000
0000
0001
0000
0000
3200
0000
0000
0310
0000
0001
0000
,
1000
0000
0002
0100
0000
0000
1000
0000
0000
0203
0000
0000
0310
0000
1000
0000
,
0100
0000
0020
0001
0000
0000
0100
0000
0000
0032
0000
0000
1003
0000
0001
0000
,
0010
0000
0200
1000
0000
0000
0010
0000
0000
1300
0000
0001
1000
0000
0001
0000
,
0100
0000
0020
1000
0000
0000
0100
0000
0000
2030
0000
0000
3001
0000
1000
0000
,
0100
0000
0020
0001
0000
0000
0100
0000
0000
0032
0000
0000
0103
0000
0010
0000
,
1000
0000
0002
0100
0000
0000
1000
0000
0000
0203
0000
0000
0310
0000
0100
0000
,
0010
0000
2000
0100
0000
0000
0001
0000
0000
3100
0000
0000
1001
0000
0000
0000
,
1000
0001
0000
1000
0001
0000
1000
0001
0000
1000
0001
0000
1000
0000
0002
0100
,
0000
0103
0000
0010
0100
0000
0010
0100
0000
0010
0100
0000
0010
0000
2000
0100
,
0000
3100
0000
0010
0001
0000
0010
0001
0000
1000
0100
0000
1000
0000
0002
1000
,
0000
1003
0000
0001
0100
0000
0010
1000
0000
0001
0100
0000
2002
0000
0000
0000
,
0000
3003
0000
0000
;
