#VERSION:0.83;
#TITLE:CAPTAIN JACK (GRANDALE REMIX);
#SUBTITLE:;
#ARTIST:CAPTAIN JACK;
#TITLETRANSLIT:;
#SUBTITLETRANSLIT:;
#ARTISTTRANSLIT:;
#GENRE:;
#CREDIT:;
#MUSIC:CAPTAIN JACK (GRANDALE REMIX).mp3;
#BANNER:CAPTAIN JACK (GRANDALE REMIX).png;
#BACKGROUND:CAPTAIN JACK (GRANDALE REMIX)-bg.png;
#CDTITLE:;
#SAMPLESTART:31.060;
#SAMPLELENGTH:15.000;
#SELECTABLE:YES;
#OFFSET:-0.025;
#BPMS:0.000=170.000
,4.000=169.993
;
#STOPS:;
#SPEEDS:0.000=1.000=0.000=0;
#SCROLLS:0.000=1.000;
#TICKCOUNTS:0.000=4;
#TIMESIGNATURES:0.000=4=4;
#LABELS:0.000=Song Start;
#COMBOS:0.000=1;
#DISPLAYBPM:170.000;
#ORIGIN:;
#PREVIEWVID:;
#JACKET:CAPTAIN JACK (GRANDALE REMIX)-jacket.png;
#CDIMAGE:;
#DISCIMAGE:;
#BGCHANGES:;
#FGCHANGES:;

//--------------- dance-single - HellKiteChaos ----------------
#NOTEDATA:;
#STEPSTYPE:dance-single;
#DESCRIPTION:HellKiteChaos;
#DIFFICULTY:Challenge;
#METER:14;
#RADARVALUES:0,0,0,0,0;
#NOTES:
0000
0000
0000
0000
,
0000
0000
0000
0000
,
0000
0000
0000
0000
,
0000
0000
0000
0000
,
0000
0000
0000
0000
,
0000
0000
0000
0000
,
1000
0001
0100
0100
,
0001
1000
0100
0100
,
1000
0001
0010
0010
,
0001
1000
0010
0100
,
2002
0000
0000
0000
,
0000
0000
0000
3003
,
1000
0000
1000
0000
0001
0000
0100
0000
0010
0100
0000
0010
0100
0000
0001
0000
,
1000
1000
0001
0001
1000
0000
0000
0000
,
0000
0000
0010
0000
0000
1000
0000
0000
0001
0000
0000
0100
0000
0000
0100
0010
,
0000
0000
0010
0000
0000
1000
0000
0000
0001
0000
0000
0010
0000
0000
0010
0100
,
0000
0000
0100
0000
0000
0010
0000
0000
0100
0000
0000
1000
0000
0000
0001
0100
,
0000
0000
0100
0000
0000
0010
0000
0000
1000
0000
0000
0001
0000
0000
0100
0010
,
0000
0000
0010
0000
0000
1000
0000
0000
0100
0000
0000
0010
0000
0000
0001
1000
,
0000
0000
1000
0000
0000
0010
0000
0000
0100
0000
0000
0001
0000
0000
1000
0001
,
0000
0000
0010
0000
0000
0100
0000
0000
1000
0000
0000
0001
0000
0000
1000
0001
,
1000
0000
0100
0000
0010
0000
0001
0000
1000
0100
1000
0100
0010
0001
0010
0001
,
1000
0000
0000
0000
0110
0000
0000
0100
1000
0000
1000
0000
0001
0000
0000
0000
,
0101
0000
0000
0000
1010
0000
0000
1000
0100
0000
0100
0000
0010
0000
0000
0000
,
0001
0000
1000
0000
0001
0000
1000
0010
0100
0000
0001
0000
0001
0000
0000
0000
,
1000
0000
0001
0000
1000
0000
0001
0010
0100
0000
1000
0000
1100
0000
0000
0000
,
1000
0000
0001
0000
0010
0001
0010
0001
0010
0000
0100
0000
1000
0000
0000
0000
,
1000
0000
0010
0000
1000
0010
1000
0010
1000
0000
0001
0000
0100
0000
0000
0000
,
0010
0000
1000
0001
1000
0000
0100
1000
0001
0000
1000
0000
1001
0000
0000
0000
,
1000
0000
0001
1000
0001
0000
0010
0001
1000
0000
0001
0000
0100
0000
0000
0000
,
0001
0000
1000
0010
1000
0000
0001
0010
0001
0000
1000
0000
1001
0000
0000
0000
,
0001
0000
1000
0100
1000
0000
0001
0100
0001
0000
1000
0000
0001
0000
1000
0000
,
0010
0100
0001
1000
1001
0010
0010
0010
,
1000
0100
0010
0001
1001
0100
0100
0100
,
0110
0010
1010
0000
0101
0001
1000
1000
,
1100
0001
0011
0000
1100
1000
0010
0010
,
0100
0001
0100
0000
0010
0000
0010
0000
1010
0000
0000
0000
1000
0000
0001
0000
,
1000
0100
1000
0000
0001
0000
1000
0000
0001
0000
0100
0000
0001
0000
0010
0000
,
0022
0000
0000
0033
,
1100
0000
1000
0000
1001
0000
0001
0000
1000
0010
0000
0100
0001
0000
1000
0000
,
1000
0001
0001
1000
1000
0000
0010
0000
,
0110
0001
1000
0100
,
0220
0000
0000
0330
,
1001
0000
0001
0000
0101
0000
0001
0000
1000
0100
0000
0010
0001
0000
1000
0000
,
1000
0001
0001
1000
1000
0000
0000
0000
,
0110
0110
0001
1000
,
0010
1000
0100
1000
0010
1000
1100
0000
,
0010
0001
0100
0001
0010
0001
0101
0000
,
0001
0000
1000
0000
0100
0000
0000
1000
0001
0000
1000
0000
0100
0000
0000
0000
,
0001
1000
0100
1000
0001
1000
1100
0000
,
0010
0001
0100
0001
0010
0001
0101
0000
,
0010
1000
0100
1000
0010
1000
1100
0000
,
1000
0000
0001
0000
0100
0000
0000
0001
1000
0000
0001
0000
0100
0000
0000
0001
,
1000
0001
1000
0001
1000
0001
0100
0000
,
0010
1000
0000
1000
0010
0100
0010
0100
,
0001
1000
1000
0001
1000
0010
1000
0010
,
1000
0000
0001
0000
1000
0100
1000
0000
0001
0100
0001
0000
0001
0100
0001
0000
,
1000
0100
1000
0000
0000
0000
0100
0000
1000
0000
0100
0000
0110
0000
0000
0000
,
0001
0010
0000
0010
0001
1000
0010
1000
,
0100
0010
0010
0001
0100
0010
0100
0000
,
0010
1000
0100
0010
0001
0100
0110
0000
,
1000
1001
0001
1001
,
0000
0000
0010
0000
0000
1000
0000
0000
0010
0000
0000
0100
0000
0000
0001
0100
,
0000
0000
0001
0000
0000
0010
0000
0000
0001
0000
0000
0010
0000
0000
0100
1000
,
0000
0000
0001
0000
0000
1000
0000
0000
0100
0000
0000
1000
0000
0000
0001
0010
,
0000
0000
0001
0000
0000
1000
0000
0000
0010
0000
1000
0010
1000
0010
1000
0000
,
0000
0000
0001
0000
0000
0010
0000
0000
0100
0000
0000
1000
0000
0000
0001
1000
,
0000
0000
1000
0000
0000
0010
0000
0000
0100
0000
0000
0001
0000
0000
1000
0001
,
0000
0000
0100
0000
0000
0010
0000
0000
1000
0000
0000
0100
0000
0000
0010
0100
,
0000
0000
1000
0000
0000
0100
0000
0000
0010
0000
0001
1000
0001
1000
0001
0000
,
2002
0000
0000
0000
,
0000
0000
0000
3003
,
1000
0000
1000
0000
0001
0000
0001
0000
1000
0100
0000
0001
0100
0000
1000
0000
,
1100
0001
0101
1000
2200
0000
3300
0000
;
