#TITLE:CANDY;
#SUBTITLE:;
#ARTIST:KOSAKA RIYU;
#TITLETRANSLIT:;
#SUBTITLETRANSLIT:;
#ARTISTTRANSLIT:;
#GENRE:;
#CREDIT:;
#MUSIC:CANDY.mp3;
#BANNER:CANDY.png;
#BACKGROUND:CANDY-bg.png;
#CDTITLE:;
#SAMPLESTART:0.000;
#SAMPLELENGTH:0.000;
#SELECTABLE:YES;
#OFFSET:-1.378;
#BPMS:0.000=180.000;
#STOPS:;
#DISPLAYBPM:180.000;
#BGCHANGES:;
#FGCHANGES:;

//--------------- dance-single - HellKiteChaos ----------------
#NOTES:
     dance-single:
     HellKiteChaos:
     Challenge:
     13:
     0,0,0,0,0:
0000
0000
0000
0000
,
0000
0000
0000
0000
,
0000
0000
0000
0000
,
0000
0000
0000
0000
,
2000
0000
3001
0000
0010
0100
0000
0210
,
0000
0310
0000
0100
0010
0000
1001
0000
,
0000
1000
0100
0000
0010
0001
0000
1000
,
0010
0100
0001
2000
0000
0001
3001
0000
,
0002
0203
0320
2030
3000
2000
3002
2003
,
3002
0023
0230
2300
3000
0001
0100
0001
,
1000
0001
1000
0001
1000
0001
1000
0001
,
2000
0010
0100
3010
,
0001
1000
0001
1000
0001
1000
0001
1000
,
0002
0100
0010
0103
,
2100
0001
0100
3001
,
0102
1000
0100
1003
,
0010
1000
0001
0000
0100
0001
1000
0000
,
0100
0010
0001
1000
0100
0010
0001
1000
,
0001
0100
0001
0010
0000
0100
1000
0100
,
1000
0010
1000
0100
0000
0010
0010
0010
,
0001
0100
0001
0010
0000
0100
1000
0010
,
1000
0100
1000
0001
1000
0000
0001
0000
,
0100
0010
0100
0000
0001
1000
0001
0000
,
1000
0100
1000
0002
0000
0013
0100
0100
,
2000
0000
3001
0100
0000
0101
0000
2002
,
0000
0000
3003
0000
,
1000
0100
0010
0001
1000
0100
0010
0001
,
1000
1100
0001
0101
,
0001
0100
0010
1000
0001
0100
0010
1000
,
0001
0000
0101
0000
1000
0001
1000
0100
,
1000
0100
0000
0100
0000
0010
0000
0010
,
0000
0001
0000
0100
0000
0010
0000
1000
,
0001
1000
0001
0000
0100
0010
0100
0000
,
0001
0010
0100
1000
0100
0010
0001
1000
,
0001
0100
0010
1000
0001
0100
0010
1000
,
0001
0101
1000
1100
,
0001
0010
0100
1000
0001
0010
0100
1000
,
0001
0000
0101
0000
1000
0000
1100
0100
,
0010
0001
0010
0000
0100
1000
0100
0000
,
1000
0010
1000
0001
0100
0010
1000
0000
,
0001
0000
0001
0000
0100
0000
0100
0000
0010
0000
1000
0000
0001
1000
0001
1000
,
0001
0100
0010
1000
0001
0001
1000
0000
,
1002
0000
0203
0000
0310
1000
0001
0200
,
0000
0320
0000
1030
0001
1000
0001
0010
,
0200
0000
2300
0000
3001
0010
0100
1000
,
0010
0000
0100
0000
0001
0000
0001
0000
1000
0000
1000
0000
0001
1000
0001
1000
,
0001
0100
0010
0000
1000
0010
0100
0002
,
0000
2003
0000
3100
1000
0010
1000
0100
,
0010
0000
0001
0010
0000
0001
0010
0000
,
0001
0010
0001
0000
0010
0100
0010
0000
0100
1000
0100
0000
1001
0000
0000
0000
,
2000
0010
3010
0010
,
0100
0100
0001
1000
,
0002
0010
0013
0010
,
0100
0000
1000
0000
0001
0000
1000
0100
,
0010
0001
0010
0001
0010
0001
1000
0000
,
0010
1000
0010
1000
0001
0100
0010
0000
,
2000
0000
3020
0000
0230
0000
0301
2000
,
0000
3100
0010
0001
0010
0000
0011
0000
,
1100
1000
0001
1000
0001
0010
0100
2000
,
0000
3001
0010
0001
2000
0000
3010
0010
,
0200
0000
0302
0000
1003
0010
1000
0002
,
0000
0103
0010
1000
0001
0100
0010
0000
,
0100
0010
0100
0010
1000
0001
1000
0100
,
0010
0001
2000
0000
3200
0000
0320
0000
,
0031
0010
0001
1000
0100
0010
0001
2002
,
0000
0000
3003
0000
,
0001
0100
0010
1000
1000
0100
0100
0010
,
0001
1000
0010
0100
0100
0001
0001
1000
,
0010
0100
0010
0000
0100
0000
0001
1000
0001
0000
1000
0000
0100
0000
0010
0000
,
0220
0000
0330
0000
;
