#TITLE:BOOM BOOM DOLLAR;
#SUBTITLE:;
#ARTIST:King Kong & D. Jungle Girls;
#TITLETRANSLIT:;
#SUBTITLETRANSLIT:;
#ARTISTTRANSLIT:;
#GENRE:;
#CREDIT:;
#MUSIC:BOOM BOOM DOLLAR.mp3;
#BANNER:BOOM BOOM DOLLAR.png;
#BACKGROUND:BOOM BOOM DOLLAR-bg.png;
#CDTITLE:;
#SAMPLESTART:0.000;
#SAMPLELENGTH:0.000;
#SELECTABLE:YES;
#OFFSET:-0.090;
#BPMS:0.000=135.145
,14.000=141.145
,15.500=136.145
,17.000=131.145
,19.000=135.145
;
#STOPS:;
#BGCHANGES:;
#FGCHANGES:;

//--------------- dance-single - HellKiteChaos ----------------
#NOTES:
     dance-single:
     HellKiteChaos:
     Challenge:
     13:
     0,0,0,0,0:
0000
0000
0000
0000
,
0000
0000
0000
0000
,
0000
0000
0000
0000
,
0000
0000
0000
0000
0000
0000
0000
2000
,
3001
0000
0000
0000
0000
0000
1000
0000
0100
0000
1000
0000
0200
0000
0000
0310
,
0000
0000
0000
0000
0000
0000
0001
0000
0100
0000
1000
0000
0100
0000
0001
1000
,
0001
1000
0001
0100
0010
0000
0100
0000
0010
0000
0100
0000
0001
0000
0000
1000
,
0100
0000
0000
0010
0001
0000
0001
0000
0010
0000
0010
0000
0100
0000
0100
0000
,
1000
0100
1000
0100
0010
0000
0001
0000
0011
0000
0000
0000
0100
0000
0010
0000
,
0110
0000
1000
0100
1000
0100
0010
0001
,
0010
0001
0100
1000
0100
1000
0100
0001
,
1000
0000
0100
0001
0100
1000
0100
0001
,
0100
1000
0000
1000
0010
1000
1010
0000
,
0001
0100
0001
0000
1000
0100
1000
0001
,
0010
0200
0000
0000
1300
0000
1000
0001
,
0100
0000
0000
0000
0010
0000
1000
0000
0010
0000
0001
0000
0010
0000
1000
0010
,
1000
0010
1000
0100
0010
0000
0001
0010
0001
0000
1000
0000
0001
0000
1000
0010
,
1000
0000
0001
0000
0010
0000
0001
0100
0001
0000
0010
0000
0100
0000
1000
0100
,
1000
0000
0001
0100
0001
0000
1000
0000
0100
0000
0010
0001
0010
0000
0001
0000
,
0100
0010
1000
1000
0100
0000
0010
0000
,
0001
0100
0001
0100
0010
0000
1000
0000
0100
0000
1000
0000
0010
0000
1000
0000
,
0100
0010
0011
0000
1100
0000
0010
0001
,
0100
1010
0101
1100
,
0011
0000
0000
0000
1100
0000
0100
0000
0100
0000
0100
0000
0100
0010
0100
0010
,
0001
0100
0010
0100
0010
0000
0100
0000
1001
0000
0000
0000
0100
0000
0010
0000
,
1001
0000
0000
0000
0010
0000
1000
0000
0001
0000
0100
0000
0010
0000
1000
0010
,
0000
0100
0001
0100
0001
0000
1000
0000
1001
0000
0000
0000
1000
0000
0001
0000
,
1001
0000
0000
0000
0011
0000
0001
0000
1001
0000
0001
0000
0100
0001
1000
0001
,
1000
0001
1000
0100
0010
0000
0001
0000
0011
0000
0000
0000
1000
0000
0100
0000
,
1100
0000
0011
0001
1001
1000
1010
0010
,
0100
0010
0100
0010
1000
0000
1000
0000
1000
0000
1000
0000
1000
0000
1000
0000
,
1000
0000
0000
0000
0001
0000
0001
0000
0001
0000
0001
0000
0001
1000
0001
1000
,
0001
0100
0010
1000
0001
0000
1000
0000
1100
0000
1000
0000
0001
0000
1000
0100
,
0000
0010
0001
0010
0002
0000
0203
0000
0320
0000
2030
0000
3200
0000
0320
0000
,
0032
0000
0203
0000
0310
0000
0100
0000
1001
0000
1000
0000
0100
0000
0010
0001
,
0000
1000
0010
1000
0020
0000
0230
0000
0302
0000
0023
0000
0230
0000
1300
0100
,
1000
0100
0010
0100
0010
0000
0001
0000
0101
0000
0000
0000
0010
0000
1000
0000
,
1100
0000
0011
0001
1000
0001
0100
0010
,
1000
0010
1000
0010
0100
0000
0100
0000
0100
0000
0100
0000
0100
0000
0100
0000
,
0100
0000
0000
0000
0110
0000
0010
0000
0010
0000
0010
0000
0010
1000
0010
1000
,
0001
0010
0100
1000
0001
0000
0000
0000
0101
0000
0000
0000
1100
0000
0000
0000
,
1100
0000
0101
0001
1100
1000
0101
0000
,
2002
0000
0000
0000
,
3003
0000
0000
0000
;
