#TITLE:BA KKWO;
#SUBTITLE:;
#ARTIST:LEE JUNG HYUN;
#TITLETRANSLIT:;
#SUBTITLETRANSLIT:;
#ARTISTTRANSLIT:;
#GENRE:;
#CREDIT:;
#MUSIC:BA KKWO.mp3;
#BANNER:BA KKWO.png;
#BACKGROUND:BA KKWO-bg.png;
#CDTITLE:;
#SAMPLESTART:0.000;
#SAMPLELENGTH:0.000;
#SELECTABLE:YES;
#OFFSET:-0.333;
#BPMS:0.000=140.022;
#STOPS:;
#DISPLAYBPM:140.000;
#BGCHANGES:;
#FGCHANGES:;

//--------------- dance-single - HellKiteChaos ----------------
#NOTES:
     dance-single:
     HellKiteChaos:
     Challenge:
     13:
     0,0,0,0,0:
0000
0000
0000
0000
,
0000
0000
0000
0000
,
0000
0000
0000
0000
,
0000
0000
0000
0000
,
0000
0000
0001
1000
0001
1000
0010
0000
,
0100
0001
0100
0010
1000
0010
0200
0000
,
0301
0000
1000
0100
0010
0000
1000
0001
,
0100
0000
0010
1000
0001
0000
0100
0010
,
0001
0000
0000
0000
1000
0010
1000
0010
1000
0000
0001
0000
0100
0000
0010
0000
,
1000
0000
0000
0000
0001
0010
0001
0010
0001
0000
1000
0000
0100
0000
0010
0000
,
0001
0000
0000
0000
0100
0010
0100
0010
0100
0000
0001
0000
1000
0000
0100
0000
,
0010
0000
0000
0000
0001
1000
0001
1000
0001
0000
0010
0000
0100
0000
1000
0000
,
1001
0000
1000
1000
0010
0010
0100
0100
,
0001
0000
0010
0000
0100
0000
0000
1000
0000
0000
1100
0000
0000
0000
0001
0000
,
0011
0000
0001
0001
0100
0100
0010
0010
,
1000
0000
0100
0000
0010
0000
0000
0001
0000
0000
0011
0000
0000
0000
1000
0000
,
1100
0000
0001
0100
1000
0100
0001
0010
,
1000
0010
0001
0100
0001
0010
0100
1000
,
0010
1000
0100
0100
0100
0010
0010
0001
,
0100
0000
0000
0000
0010
0000
1000
0010
1000
0000
0010
1000
0100
0000
0100
0000
,
0010
0000
0001
0010
0000
0010
0100
1000
,
0100
0000
0010
0000
0001
0000
0000
1000
0000
0000
0001
0000
0000
0000
0100
0000
,
0010
1000
0001
0100
0010
0100
0010
0100
,
0001
0000
1000
0000
0100
0000
0000
0010
0000
0000
0100
0000
0010
0000
0001
0000
,
0100
0010
1000
0010
0000
0010
1000
0001
,
0000
0001
1000
0100
0000
0100
0010
0001
,
1000
0010
1000
0100
0010
0100
0100
0100
,
1000
0000
0000
0000
0001
0000
0010
0001
0010
0000
0100
0010
0001
0000
1000
0000
,
0001
0000
1000
0010
1000
0010
0100
0001
,
0100
0001
1000
0100
0010
0001
1000
0001
,
1001
0000
0001
0100
0001
0100
0010
1000
,
0010
1000
0001
0010
0100
1000
0001
0010
,
0011
0000
1000
1000
0100
0100
0010
0010
,
0001
0001
1000
1000
0010
0010
0100
0100
,
0001
0001
0100
0010
0100
0010
0100
0010
,
0100
2002
0000
0000
0000
0000
0000
3003
,
0000
0000
0001
1000
0100
0000
0010
0000
0010
0000
0001
1000
0010
0000
0100
0000
,
0100
0000
0001
1000
0100
0000
0010
0000
0010
0000
0001
1000
0001
0000
0100
0000
,
0010
0000
1000
0001
0100
0000
0010
0000
0010
0000
1000
0001
0010
0000
0100
0000
,
0100
0000
1000
0001
0100
0000
0010
0000
0010
0000
1000
0010
1000
0000
0001
0100
,
0001
0000
1000
0001
0010
0000
0100
0000
0100
0000
1000
0001
0100
0000
0010
0000
,
0010
0000
1000
0001
0010
0000
0100
0000
0100
0000
1000
0001
1000
0000
0001
0000
,
0100
0000
0010
1000
0001
0000
0010
0000
0010
0000
0001
1000
0010
0000
0100
0000
,
0100
0000
0001
1000
0100
0000
0010
0000
0010
0000
0001
0010
0001
0000
1000
0100
,
1000
0000
0001
0100
0001
0000
1000
0000
1000
0000
0001
0010
0001
0000
1000
0000
,
1000
0000
0001
0100
0001
0000
1000
0000
1000
0000
0010
0100
0010
0000
0100
0001
,
1000
0001
1000
0001
1000
0000
0001
0000
0001
0000
1000
0100
1000
0000
0001
0000
,
0001
0000
1000
0010
1000
0000
0001
0000
0001
0000
1000
0100
0010
0001
1000
0100
,
0010
0000
0001
1000
0001
0000
1000
0100
1000
0000
0001
1000
0001
0000
1000
0010
,
1000
0000
0001
1000
0001
0000
1000
0100
1000
0000
0001
0100
0010
1000
0001
0100
,
0010
0000
1000
0010
1000
0000
0001
1000
0001
0000
1000
0100
1000
0000
0001
1000
,
0001
0000
1000
0001
1000
0000
0001
0000
1000
0000
0001
0000
0100
0000
0010
1000
,
0001
0000
0100
0010
2000
0000
0000
0000
0000
0000
0000
0000
0000
0000
0000
0000
,
0000
0000
0000
0000
,
3000
0000
0000
0000
;
