#TITLE:AM-3P ;
#SUBTITLE:;
#ARTIST:KTz;
#TITLETRANSLIT:;
#SUBTITLETRANSLIT:;
#ARTISTTRANSLIT:;
#GENRE:;
#CREDIT:;
#MUSIC:AM-3P.mp3;
#BANNER:AM-3P.png;
#BACKGROUND:AM-3P-bg.png;
#CDTITLE:;
#SAMPLESTART:0.000;
#SAMPLELENGTH:0.000;
#SELECTABLE:YES;
#OFFSET:-0.041;
#BPMS:0.000=130.108;
#STOPS:;
#BGCHANGES:;
#FGCHANGES:;

//--------------- dance-single - HellKiteChaos ----------------
#NOTES:
     dance-single:
     HellKiteChaos:
     Challenge:
     13:
     0,0,0,0,0:
0000
0000
0000
0000
,
0000
0000
0000
0000
,
0000
0000
0000
0000
,
0000
0000
0000
0000
,
0001
0100
0001
0010
0001
0100
0001
0000
,
1000
0100
1000
0010
1000
0100
1000
0000
,
0001
0100
0010
0100
0001
1000
0001
1000
,
0200
0320
0031
1001
,
1000
0000
0100
0000
1000
0000
0010
0000
1000
0100
0010
0001
0010
0100
1000
0000
,
0001
0000
0100
0010
0000
0000
1000
0000
1000
0000
0100
0010
0000
0010
0001
0000
,
1001
0000
1000
0000
0001
0000
0100
0000
0001
0010
0100
1000
0100
0010
0001
0000
,
1000
0000
0010
0100
0000
0000
0001
0000
0001
0000
0010
0100
0000
0100
1000
0000
,
1001
0000
0001
0000
0100
0000
0010
0000
1000
0100
0010
0001
0100
0010
1000
0000
,
0001
0000
0100
0010
0000
0000
1000
0000
1000
0000
0100
0010
0000
0010
0001
0000
,
1001
0000
0001
0000
0100
0000
0010
0000
1000
0010
0000
0100
0001
0000
1000
0000
,
1100
0000
0000
0110
0000
0000
0011
0000
0000
0110
0000
0000
1100
0000
1000
0000
,
0001
0000
1000
0100
0000
1000
0100
0000
0000
1000
0001
0000
0010
0000
0100
0000
,
1000
0000
0001
0010
0000
0001
0010
0000
0000
0001
1000
0000
0010
0000
0100
0000
,
0001
0000
1000
0010
0000
1000
0010
0000
0000
0100
0001
0000
1000
0000
0001
0000
,
1000
0100
0000
0010
0001
0000
1000
0100
0000
0010
0001
0000
1000
0000
0001
0000
,
1000
0000
0001
0010
0000
0001
0010
0000
0000
0001
1000
0000
0100
0000
0010
0000
,
0001
0000
1000
0100
0000
1000
0100
0000
0000
1000
0001
0000
0100
0000
0010
0000
,
1000
0000
0001
0100
0000
0001
0100
0000
0000
0010
1000
0000
0001
0100
0010
1000
,
0001
0100
0001
0000
1000
0010
1000
0000
0001
0010
0001
0000
1000
0100
1000
0000
,
0001
0000
0001
0100
0000
0100
0010
0000
0010
1000
0000
1000
0001
0000
1000
0000
,
0001
0000
0001
0010
0000
0010
0100
0000
0100
1000
0000
1000
0001
0000
1000
0000
,
0001
0000
0001
0100
0000
0100
0010
0000
0010
1000
0000
1000
0001
0000
1000
0000
,
0001
0000
0001
0010
0000
0010
0100
0000
0100
1000
0000
1000
0001
0000
1000
0000
,
0001
0000
1000
0010
0000
1000
0010
0000
0100
0001
0000
0100
0001
0000
1000
0000
,
0001
0000
0001
0010
0000
0001
0010
0000
0100
1000
0000
0100
1000
0000
0001
0000
,
1000
0000
0010
0100
0000
0001
1000
0000
0010
0100
0000
0001
1000
0000
0010
0000
,
0100
0000
0001
1000
0000
0100
0010
0000
0001
1000
0000
0100
0010
0000
0001
0000
,
1000
0100
0010
0100
1000
0000
0000
0001
0100
0001
0100
0000
0000
0010
0100
0001
,
0000
1000
0100
1000
0001
0010
0001
0000
0000
1000
0100
0010
0100
1000
0000
0000
,
0000
0001
0010
0100
0010
0000
0000
0100
0010
0100
1000
0000
0000
1000
0100
1000
,
0000
1000
0010
1000
0100
0010
0001
1000
0010
0100
0010
0100
0000
0001
1000
0010
,
0200
0001
0010
0301
,
2000
0000
3001
0000
1000
0100
0010
0001
1000
0001
1000
0000
2002
0000
3003
0000
,
0101
1010
1100
0011
,
0002
0000
1000
0000
1003
0100
1000
0000
0001
0100
0001
0000
1000
0001
1000
0001
,
1000
0100
0010
0000
0001
0100
0010
0000
,
1000
0001
1000
0010
0100
0110
1001
0000
,
0101
0100
0100
1010
0010
0010
1100
1000
,
1000
0011
0001
0001
0011
0110
1100
1001
;
