#TITLE:AFTER THE GAME OF LOVE;
#SUBTITLE:;
#ARTIST:NPD3;
#TITLETRANSLIT:;
#SUBTITLETRANSLIT:;
#ARTISTTRANSLIT:;
#GENRE:;
#CREDIT:;
#MUSIC:AFTER THE GAME OF LOVE.mp3;
#BANNER:AFTER THE GAME OF LOVE.png;
#BACKGROUND:AFTER THE GAME OF LOVE-bg.png;
#CDTITLE:;
#SAMPLESTART:0.000;
#SAMPLELENGTH:0.000;
#SELECTABLE:YES;
#OFFSET:-0.077;
#BPMS:0.000=105.092;
#STOPS:;
#DISPLAYBPM:105.000;
#BGCHANGES:;
#FGCHANGES:;

//--------------- dance-single - HellKiteChaos ----------------
#NOTES:
     dance-single:
     HellKiteChaos:
     Challenge:
     12:
     0,0,0,0,0:
0000
0000
0000
0000
,
0000
0000
0000
0000
,
0000
0000
0000
0000
,
1100
1000
0101
0001
0011
1000
1010
1000
,
0001
0000
0100
0000
0101
0000
1000
0001
1000
0001
1000
0000
0100
0000
0000
0000
,
1000
0000
0010
0000
1010
0000
1000
0000
0001
0100
0001
0100
0001
0000
0000
0000
,
1000
0000
0001
0010
0001
0000
0001
0010
0001
0000
0001
0000
1000
0000
0001
0000
,
0101
0000
1010
0000
1000
0100
1000
0001
,
0100
0000
0100
0000
0010
0000
0000
1000
0001
0000
0001
0000
0010
0000
0000
0000
,
0100
0000
0100
0000
1000
0000
0001
1000
0001
0000
0100
0000
0010
0000
0000
0000
,
1000
0000
0010
0000
0100
0000
0001
0100
0001
0000
1000
0000
0001
0000
0010
0000
,
0100
1000
0100
0000
1000
0001
1000
0000
0010
0000
0100
0000
1001
0000
1001
0000
,
0001
0000
0100
0000
0010
0000
0000
1000
0001
0000
1000
0000
0001
0000
0000
0000
,
0010
0000
0100
0000
0010
0000
0000
0100
0010
0000
0001
0000
1000
0000
0000
0000
,
0010
1000
0001
0000
0100
0010
1000
0000
,
0001
0000
0010
0000
0100
0000
1000
0000
0001
1000
0001
1000
0001
0000
0000
0000
,
0100
0001
0101
0000
1000
0010
1010
0000
,
0001
0000
0100
0000
0010
0000
1000
0001
0100
0000
0010
0000
1000
0000
0000
0000
,
0001
0010
0011
0000
1000
0100
1100
0000
,
0010
0000
0001
0000
1000
0000
0100
0010
0001
0000
1000
0000
1001
0000
0000
0000
,
0001
0000
0100
0000
0001
0000
1000
0000
0010
0000
1000
0000
0100
1000
0100
1000
,
0100
0000
0010
0001
1000
0000
0001
0000
0100
0000
0010
0000
0110
0000
0000
0000
,
1000
0000
0000
0010
1000
0000
0000
0001
0100
0000
0000
0010
1000
0000
0000
0000
,
0101
1010
1100
0011
,
1000
0000
0100
0000
0010
0000
0001
1000
0001
1000
0001
0000
1000
0000
0000
0000
,
0001
0000
0100
0000
0010
0000
1000
0010
1000
0010
1000
0000
0001
0000
0000
0000
,
1000
0100
1000
0010
1000
0100
1000
0010
,
0100
0001
0100
0010
1000
0001
0010
0100
,
1000
0000
0001
0000
0100
0000
0010
0000
0100
0001
0100
0001
0100
0000
0000
0000
,
0001
0000
0010
0000
0100
0000
0010
0000
0001
0010
0001
0010
0001
0000
0000
0000
,
0100
0010
0001
0000
0100
0010
1000
0000
,
0001
0100
0010
1000
0001
0010
0100
1000
,
0001
0100
0101
0000
1000
0100
1100
0000
,
1000
0010
1000
0001
0010
0001
1000
0000
,
0010
0100
0101
0000
0001
0010
1100
0000
,
1000
0010
1000
0100
0010
0001
0100
0000
,
0010
0000
1000
0000
0001
0000
0100
0000
0010
0100
0010
0100
0010
0000
0000
0000
,
1000
0000
0001
0000
0100
0000
0010
0000
1000
0001
1000
0001
1000
0000
0000
0000
,
0100
1000
0010
0100
0001
0010
0100
1000
,
1010
1000
1001
0001
0101
0100
0110
0010
,
2002
3003
0000
0000
;
