#TITLE:321 STARS;
#SUBTITLE:;
#ARTIST:DJ SIMON;
#TITLETRANSLIT:;
#SUBTITLETRANSLIT:;
#ARTISTTRANSLIT:;
#GENRE:;
#CREDIT:;
#MUSIC:321 STARS.mp3;
#BANNER:321 STARS.png;
#BACKGROUND:321 STARS-bg.png;
#CDTITLE:;
#SAMPLESTART:0.000;
#SAMPLELENGTH:0.000;
#SELECTABLE:YES;
#OFFSET:-0.269;
#BPMS:0.000=192.000;
#STOPS:199.000=0.469;
#DISPLAYBPM:192.000;
#BGCHANGES:;
#FGCHANGES:;

//--------------- dance-single - HellKiteChaos ----------------
#NOTES:
     dance-single:
     HellKiteChaos:
     Challenge:
     14:
     0,0,0,0,0:
0000
M000
0000
MM00
,
0000
MMM0
MM00
M000
,
0000
0000
1001
0000
1000
0100
1000
0010
,
1000
1000
1000
0000
0100
0000
0010
0001
,
0011
0000
1001
0000
0001
0100
0001
0010
,
0001
0001
0001
0000
0100
0000
0010
1000
,
1010
0000
1001
0000
1000
0010
0100
0001
,
0010
0000
0100
0000
0010
0000
0100
0000
0010
0000
0001
1000
0001
0000
0000
0000
,
1001
0000
0001
0100
0010
0010
1000
0100
,
0010
0000
0010
0000
0010
0000
0001
1000
0001
0000
0100
0000
0010
0000
0100
0000
,
0110
0000
0100
0001
0101
0000
1000
0010
,
1010
0000
0001
0010
0011
0000
0100
1000
,
1100
0000
0100
0100
0100
0100
0100
0100
,
0100
0100
0100
0000
0100
0000
0100
0000
,
1001
2000
3020
0130
,
0100
0001
1001
0000
1100
0000
0010
0001
,
1000
0100
0020
0000
0032
0000
1003
0000
,
0100
1000
1001
0000
0011
0000
0020
0032
,
2003
3200
0320
0000
0031
0000
1000
0010
,
1000
0001
0000
0100
0001
1000
0010
0000
,
0100
0000
0000
0000
0001
0000
0010
0000
0100
1000
0100
0000
1000
0000
0010
0000
,
0100
0001
0100
0000
0001
0000
0001
0000
1000
0000
1000
0000
0010
0100
0001
1000
,
0010
1000
0200
0000
0320
0000
0031
0000
,
1000
0001
1001
0000
0101
0002
0000
1003
,
0001
0100
0020
0000
2030
0000
3001
0000
,
0100
0001
1001
0000
1000
0100
0100
0010
,
0001
1000
0200
0000
0320
0000
0031
0100
,
1000
0200
0000
0301
0010
1000
0020
0000
,
0032
0000
0000
0000
1003
0000
0010
0000
0100
0001
0100
0000
0001
0000
0010
0000
,
0100
1000
0100
0000
1000
0000
1000
0000
0001
0000
0001
0000
0100
0000
0010
0000
,
1001
1001
0101
1001
,
1100
1000
1002
0000
0203
0000
0320
0000
,
1030
0000
0000
1000
0001
0000
0000
0000
0110
0000
0000
0000
1001
0000
0000
0000
,
0101
0000
0001
0000
2001
0000
0000
0000
3002
0000
0000
0000
0103
0000
0010
1000
,
0001
0100
0010
0000
0110
0000
0101
0000
,
2001
0000
0000
0000
3002
0000
0000
0000
0103
0000
0000
0100
0020
0000
0000
0000
,
1030
0000
0010
1000
1001
0000
0100
0001
,
1001
0000
1000
0100
0010
0001
1000
0100
,
0010
0001
1000
0100
0000
0010
0000
0001
,
0000
0100
0000
1000
0000
0100
0010
0000
,
1010
0000
0001
0100
0000
1000
0000
0100
,
0000
0001
0000
0010
0000
0100
0010
0000
,
0011
0000
0001
0010
0000
0100
1000
0100
,
0000
0010
0001
0010
0100
1000
0001
0000
,
1001
0000
0001
0100
0010
1000
0001
0100
,
0010
1000
0100
0010
0001
0100
0010
1000
,
0100
0010
1001
0000
0100
0000
1001
0000
,
0100
1001
0100
1001
,
0100
0000
0010
0010
0010
0010
0010
0010
,
0010
0000
0010
0000
0010
0000
0000
0010
0000
0000
0010
0000
0000
0000
0000
0000
,
0000
1000
0000
1000
,
0000
0001
0100
0000
0100
0000
1001
0000
,
1000
0000
0000
1000
0001
0000
0000
0000
0000
0000
0000
0000
0101
0000
0000
0000
,
0000
0000
0100
0000
1010
0000
0000
0000
1000
0000
0000
0001
1000
0000
0000
0001
,
1000
0000
0000
0001
1000
0000
0000
0000
0000
0000
0000
0000
1100
0000
0000
0000
,
0010
0001
0010
0100
1000
1001
0000
0000
,
0000
0010
0010
0100
,
0100
0000
0001
1000
0001
1000
0010
0100
,
0001
1000
0001
0100
0101
0000
1000
0100
,
1100
0000
0010
0001
0011
0000
1000
0010
,
1010
0000
0100
0100
0100
0100
0100
0100
,
0100
0100
0100
0000
0010
0000
0100
0000
,
2002
0000
0000
0000
,
3003
0000
0000
0000
;
