#TITLE:1998;
#SUBTITLE:;
#ARTIST:NAOKI;
#TITLETRANSLIT:;
#SUBTITLETRANSLIT:;
#ARTISTTRANSLIT:;
#GENRE:;
#CREDIT:;
#MUSIC:1998.mp3;
#BANNER:1998.png;
#BACKGROUND:1998-bg.png;
#CDTITLE:;
#SAMPLESTART:0.000;
#SAMPLELENGTH:0.000;
#SELECTABLE:YES;
#OFFSET:-1.082;
#BPMS:0.000=150.000;
#STOPS:;
#DISPLAYBPM:150.000;
#BGCHANGES:;
#FGCHANGES:;

//--------------- dance-single - HellKiteChaos ----------------
#NOTES:
     dance-single:
     HellKiteChaos:
     Challenge:
     15:
     0,0,0,0,0:
0000
0000
0000
0000
,
0000
0000
0000
0000
,
0000
0000
0000
0000
,
0000
0000
0000
0000
,
1000
0001
0000
1000
0000
0010
0000
0010
2000
0000
0000
0000
3001
0000
0000
0000
,
0001
1000
0000
0100
0000
0100
0000
1000
0002
0000
0000
0000
1003
0000
0000
0000
,
0010
0100
0000
0100
0000
0010
0000
0100
0002
0000
0000
0000
1003
0000
0000
0000
,
0100
0000
1000
0000
0001
0000
0010
0000
0100
0000
1000
0000
0001
1000
0001
1000
,
0100
0000
0010
0100
0010
0000
0002
0000
0100
0000
0100
0000
0103
0000
0001
0000
,
1000
0000
0010
1000
0001
0000
0100
0001
1000
0000
0100
0010
0100
0000
0200
0000
,
0310
0000
0001
1000
0100
0000
0020
0000
0032
0000
2003
0000
3100
0010
0100
0010
,
0002
1003
0020
0130
0001
1000
1001
0000
,
1000
0000
0001
0010
0001
0000
1000
0000
0100
0000
0010
0000
0110
0000
0000
0000
,
0001
0010
0001
0010
0001
0000
1000
0000
0001
0000
0100
0000
0110
0000
0010
0000
,
1000
0000
0010
0000
1010
0000
0000
0000
0010
0000
1000
0001
0000
1000
0001
0000
,
1000
0000
0100
0000
0010
0000
0001
0000
1000
0100
1000
0100
0010
0001
0010
0001
,
2000
0000
0000
0000
0000
0000
0001
0000
0001
0000
3001
0000
,
1000
0000
0002
0010
0000
0010
0000
0023
0000
0130
0000
0010
0001
0000
1000
0000
,
0001
0000
2000
0010
0000
0010
0000
3020
0000
0130
0000
0010
1000
0000
0002
0000
,
1003
0002
0103
0002
1003
0002
0013
0002
,
1003
0002
0103
0002
1003
1000
1002
0000
,
2003
0000
3001
0100
0000
0100
0000
0010
0000
0010
0000
0100
0010
0000
0110
0000
,
0002
0000
1003
0010
0000
0010
0000
0100
0000
0100
0000
0010
0100
0000
0110
0000
,
2000
0000
3001
0010
0000
0010
0000
0100
0000
0100
0000
0010
0100
0000
1000
0000
,
0002
0000
0103
0000
2000
0000
3100
0000
0002
0000
1003
0000
0001
1000
0001
1000
,
0100
0000
0010
0001
0000
1000
0000
0001
0000
1000
0000
0001
0100
0000
0010
0000
,
1000
0000
0100
0010
0000
0100
0000
0010
0000
0100
0000
0010
0001
0000
2000
0000
,
3001
2000
3100
2000
3001
2000
3010
2000
,
3001
2000
3100
2000
3001
0001
2001
0000
,
3001
0100
0010
0100
0010
0100
0001
1000
,
0100
0010
0100
0010
0001
1000
0002
1000
,
1003
0100
0010
0100
1000
1000
0001
0000
,
0010
0100
1000
0001
0010
0100
1000
0001
,
0201
0010
0000
0001
,
0000
0010
0000
0301
,
1200
0010
0000
1000
,
0000
0310
0100
0110
,
0100
1000
0100
1000
0001
0010
0001
0010
,
0100
1000
0010
0100
0001
1000
0001
0000
,
1000
0001
0100
0010
1000
0001
0100
0001
,
1000
0010
0100
0010
1000
0001
0100
0010
,
1000
0100
0010
0001
1000
0010
0100
0001
1000
0100
0010
0001
,
2000
0000
0000
0000
0000
0000
0000
0000
0000
0000
0000
0000
3000
0000
0001
0100
,
0001
0000
1000
0100
1000
0000
0001
0100
0002
0000
0000
0000
1003
0000
1000
0000
,
1001
0000
0110
0000
,
1001
0000
0000
0000
0110
0000
0000
0000
1001
0000
0000
0001
1000
0000
1000
0000
,
0001
0100
0010
0100
0010
0100
0001
0100
,
0010
0100
0010
1000
0100
0010
0001
1000
,
0100
0010
0100
0010
0100
1000
0100
0010
,
0100
0000
1000
0000
0001
0000
0010
0000
0100
0000
1000
0100
0010
0001
1000
0001
,
1000
0000
0002
0010
0000
0010
0000
0023
0000
0130
0000
0010
0001
0000
1000
0000
,
0001
0000
2000
0010
0000
0010
0000
3020
0000
0130
0000
0010
1000
0000
0002
0000
,
1003
0002
0103
0002
0013
0002
0103
0002
,
1003
0002
0103
0002
1003
1000
2001
0000
,
3001
0000
2000
0100
0000
0100
0000
3200
0000
0310
0000
0100
1000
0000
0001
0000
,
1000
0000
0002
0100
0000
0100
0000
0203
0000
0310
0000
0100
0001
0000
1000
0000
,
1001
0000
0100
0000
0010
0000
0100
0000
0110
0000
1000
0000
0001
1000
0001
0000
,
1000
0100
1000
0000
0001
0010
0001
0000
0100
0001
0100
0000
0001
0100
0010
1000
,
0001
0000
0100
0001
0200
0000
0320
0000
1030
0000
0100
0010
0001
0000
1000
0000
,
2002
3003
0000
0220
0330
0000
2002
0000
0000
0000
3003
0000
0000
0000
0000
0000
;
