#TITLE:1,2,3,4, 007;
#SUBTITLE:;
#ARTIST:NI-NI;
#TITLETRANSLIT:;
#SUBTITLETRANSLIT:;
#ARTISTTRANSLIT:;
#GENRE:;
#CREDIT:;
#MUSIC:1,2,3,4, 007.mp3;
#BANNER:1,2,3,4, 007.png;
#BACKGROUND:1,2,3,4, 007-bg.png;
#CDTITLE:;
#SAMPLESTART:0.000;
#SAMPLELENGTH:0.000;
#SELECTABLE:YES;
#OFFSET:-0.110;
#BPMS:0.000=140.000;
#STOPS:;
#DISPLAYBPM:140.000;
#BGCHANGES:;
#FGCHANGES:;

//--------------- dance-single - HellKiteChaos ----------------
#NOTES:
     dance-single:
     HellKiteChaos:
     Challenge:
     12:
     0,0,0,0,0:
0000
0000
0000
0000
,
0000
0000
0000
0000
,
0000
0000
0000
0000
,
0000
0000
0000
0000
,
2002
0000
0000
3003
,
0001
0000
0010
0000
0000
0100
0010
0000
0100
0000
1000
0000
0000
1000
0100
0000
,
1000
0000
0001
0000
0000
0001
1000
0000
0001
0000
0100
0000
0000
0100
0001
0000
,
0100
0000
0010
0000
1000
0000
0100
0000
0010
0000
0001
0010
0000
0001
0010
0000
,
0000
0000
0010
0000
0100
0000
1000
0000
0001
0000
1000
0010
0000
1000
0010
0000
,
1000
0000
0001
0100
0001
0000
1000
0000
0010
0000
1000
0000
0010
0000
0000
0000
,
0100
0001
0100
0010
1000
0001
0010
0000
,
0100
0000
1000
0100
1000
0000
0100
0000
0010
0000
0001
0000
1000
0000
0010
0000
,
1000
0000
0010
0000
1010
0000
0000
0000
0001
0100
0001
0100
0001
0000
0000
0000
,
1000
0000
0010
1000
0001
0000
0010
0000
0100
0000
0010
0000
0100
0000
1000
0000
,
0100
0010
0001
0100
0010
1000
0001
0100
,
0010
0000
1000
0001
0010
0000
0001
0000
0010
0000
0001
0000
0010
0000
0100
0000
,
1000
0100
1000
0100
0001
0100
1000
0000
,
0001
0000
0000
0010
0001
0000
0000
0010
0001
0000
0000
0010
0001
0000
0000
1000
,
0100
0000
0000
1000
0100
0000
0000
1000
0100
0000
0000
1000
0100
0000
0000
0000
,
1010
1010
0101
0101
,
0000
0002
0203
0320
2030
3002
0203
0320
,
1030
0000
0000
0010
1000
0000
0000
0010
1000
0000
0000
0010
1000
0000
0000
0001
,
0100
0000
0000
0001
0100
0000
0000
0001
0100
0000
0000
0001
0100
0000
0000
0000
,
0011
0011
1100
1100
,
1000
0000
0100
0000
1000
0000
0100
0000
0010
0000
0001
0000
1000
0001
1000
0001
,
2000
3100
0002
0103
,
1010
0101
2200
3300
,
0001
0010
0001
0010
0100
1000
0100
1000
,
0010
1000
0010
1000
0001
0100
0001
0100
,
0020
1030
0200
0301
,
0000
1100
0202
0303
,
1000
0100
0010
0001
1000
0010
1000
0010
,
1000
0001
0010
0100
1000
0001
0100
0000
,
0002
0013
2000
3010
,
0101
1010
0022
0033
,
1000
0100
1000
0100
0010
0001
0010
0001
,
0100
0001
0100
0001
1000
0010
1000
0010
,
0200
0301
0020
1030
,
0000
0011
2020
3030
,
0001
0010
0100
1000
0001
0100
0001
0100
,
0001
0000
1000
0000
0100
0000
0010
0000
0001
0000
1000
0000
0010
1000
0010
1000
,
0020
1000
2030
0001
,
3002
0100
0203
0310
,
0000
0000
0010
0000
1000
0000
0001
0000
0020
0000
0000
0230
0000
0000
1300
0000
,
0001
0000
1000
0000
0001
0000
0100
0000
0020
0000
0000
1030
0000
0000
0001
1000
,
0002
0100
0103
0000
0200
0010
0310
0000
,
0020
1000
1030
0000
2000
0001
3001
0000
,
1000
0000
0100
0000
0010
0000
0001
0000
2000
0000
0000
3002
0000
0000
1003
0000
,
0100
0000
0010
0000
0001
0000
0100
0000
0020
0000
0000
0230
0000
0000
0310
0000
,
2002
3003
0000
0000
;
