#TITLE:Takumi;
#SUBTITLE:;
#ARTIST:Neo;
#TITLETRANSLIT:;
#SUBTITLETRANSLIT:;
#ARTISTTRANSLIT:;
#CREDIT:;
#BANNER:TAKUMI.png;
#BACKGROUND:TAKUMI-bg.png;
#LYRICSPATH:;
#CDTITLE:;
#MUSIC:Takumi.mp3;
#OFFSET:-0.088;
#SAMPLESTART:56.020;
#SAMPLELENGTH:16.420;
#SELECTABLE:YES;
#BPMS:0.000=157.000;
#STOPS:;
#BGCHANGES:;

//---------------dance-single - ----------------
#NOTES:
     dance-single:
     :
     Hard:
     8:
     0.648,0.737,0.502,0.471,0.199: // measure 1
0000
0000
0000
0000
,  // measure 2
0000
0000
0000
0000
,  // measure 3
0000
0000
0000
0000
,  // measure 4
0000
0000
0000
0000
,  // measure 5
1100
0000
0000
1100
0000
0000
2100
0000
,  // measure 6
0010
0000
0000
0010
0000
0000
3020
0000
,  // measure 7
0100
0000
0000
0100
0000
0000
0230
0000
,  // measure 8
0001
1000
0010
0301
,  // measure 9
2100
0010
0100
3001
,  // measure 10
0102
0100
0010
1003
,  // measure 11
0001
0100
1000
0100
0001
0010
1000
0010
,  // measure 12
2002
0000
0000
3003
,  // measure 13
1100
0000
0000
0000
0101
0000
0000
0000
0001
1000
0001
1000
0001
1000
0001
0000
,  // measure 14
1010
0000
0000
0000
0011
0000
0000
0000
1000
0001
1000
0001
1000
0001
1000
0000
,  // measure 15
0001
0100
1000
0200
0000
0320
0000
1030
,  // measure 16
0002
0010
0100
1003
,  // measure 17
0011
0000
0000
0000
1010
0000
0000
0000
1000
0001
1000
0001
1000
0001
1000
0000
,  // measure 18
0101
0000
0000
0000
1100
0000
0000
0000
0001
1000
0001
1000
0001
1000
0001
0000
,  // measure 19
1000
0010
0001
0020
0000
0230
0000
0301
,  // measure 20
2000
0100
0010
3001
,  // measure 21
1100
0000
0101
0000
1002
0000
0010
0013
,  // measure 22
0000
0001
0010
0100
2000
0000
0010
3010
,  // measure 23
0000
1000
0010
0100
0002
0000
0010
0010
,  // measure 24
0000
0100
0100
1000
1000
0010
0013
0000
,  // measure 25
0011
0000
1010
0000
2001
0000
0100
3100
,  // measure 26
0000
1000
0100
0010
0001
1000
0000
1001
,  // measure 27
0000
0001
0100
0010
2000
0000
0100
0100
,  // measure 28
0000
0010
0010
0001
0001
0100
3100
0000
,  // measure 29
1000
0100
0000
0001
0100
0000
1000
0010
,  // measure 30
0000
0001
0010
0000
2000
0000
3001
0000
,  // measure 31
2200
0000
3300
0220
0000
0330
0022
0000
,  // measure 32
0033
0202
0000
0303
1010
0000
0101
0000
,  // measure 33
1000
0010
0000
0001
0010
0000
1000
0100
,  // measure 34
0000
0001
0100
0000
2000
0000
3001
0000
,  // measure 35
2000
0000
0010
0010
0000
0001
3001
0000
,  // measure 36
2000
0000
3010
0010
0002
0000
0013
0010
,  // measure 37
1000
0010
0001
0010
1000
0001
0001
0001
,  // measure 38
0000
0000
1100
0100
0000
0010
0010
0010
,  // measure 39
0000
0000
0001
0100
0001
0100
0001
0000
0000
0000
1000
0100
1000
0000
0001
0000
,  // measure 40
1000
0010
0000
1020
0000
0001
0001
0031
,  // measure 41
0010
0100
0000
0201
0000
1000
1000
1300
,  // measure 42
0000
0000
0101
0100
0000
0010
0010
0010
,  // measure 43
0000
0000
1000
0100
1000
0100
1000
0000
0000
0000
0010
0000
0100
0001
0100
0001
,  // measure 44
1000
0100
0000
0201
0000
1000
1300
0000
,  // measure 45
0100
1000
0010
0001
0000
0010
0100
0001
,  // measure 46
0000
0000
1100
0100
0000
0010
0010
0010
,  // measure 47
0000
0000
0001
0100
0001
0100
0001
0000
0000
0000
1000
0100
1000
0000
0001
0000
,  // measure 48
1000
0010
0000
1020
0000
0001
0001
0031
,  // measure 49
0010
0100
0000
0201
0000
1000
1000
1300
,  // measure 50
0000
0000
0101
0100
0000
0010
0010
0010
,  // measure 51
0000
0000
1000
0100
1000
0100
1000
0000
0000
0000
0010
0000
0100
0001
0100
0001
,  // measure 52
1000
0100
0000
0201
0000
1000
1300
0000
,  // measure 53
0100
1000
0010
0001
0000
0010
0100
0001
,  // measure 54
0011
0000
0000
0000
1010
0000
0000
0000
1000
0001
1000
0001
1000
0001
1000
0000
,  // measure 55
0101
0000
0000
0000
1100
0000
0000
0000
0001
1000
0001
1000
0001
1000
0001
0000
,  // measure 56
1000
0010
0001
0020
0000
0230
0000
0301
,  // measure 57
2000
0100
0010
3001
,  // measure 58
1100
0000
0000
0000
0101
0000
0000
0000
0001
1000
0001
1000
0001
1000
0001
0000
,  // measure 59
1010
0000
0000
0000
0011
0000
0000
0000
1000
0001
1000
0001
1000
0001
1000
0000
,  // measure 60
0001
0100
1000
0200
0000
0320
0000
1030
,  // measure 61
0002
0000
0010
0000
0103
0101
1100
2002
,  // measure 62
0000
3003
0000
0000
;
