#TITLE:Superunknown;
#SUBTITLE:;
#ARTIST:Soundgarden;
#TITLETRANSLIT:;
#SUBTITLETRANSLIT:;
#ARTISTTRANSLIT:;
#GENRE:;
#CREDIT:;
#MENUCOLOR:;
#METERTYPE:DDR X;
#BANNER:Superunknown.png;
#BACKGROUND:Superunknown-bg.png;
#LYRICSPATH:;
#CDTITLE:;
#MUSIC:Superunknown.mp3;
#OFFSET:-0.160;
#SAMPLESTART:101.320;
#SAMPLELENGTH:15.000;
#SELECTABLE:YES;
#LISTSORT:;
#BPMS:0.000=133.950,89.000=132.010,113.000=133.950,145.000=133.490,161.000=132.490,204.000=133.950,212.000=133.950,220.000=134.490,235.000=138.490,249.500=137.950,250.000=135.950,251.000=133.950,252.000=131.490;
#STOPS:202.000=2.264
;
#BGCHANGES:-1.000=Superunknown.avi=1.000=0=0=0,
99999=-nosongbg-=1.000=0=0=0 // don't automatically add -songbackground-
;
#ATTACKS:;

//---------------dance-single - ----------------
#NOTES:
     dance-single:
     :
     Hard:
     13:
     0.571,0.537,0.533,0.110,0.161: // measure 1
1000
0100
1000
0000
0010
0000
0100
0000
0001
0000
0010
0000
0100
0000
1000
0000
,  // measure 2
0001
0100
0001
0000
0010
0000
0100
0000
1000
0000
0010
0000
0100
0000
0001
0000
,  // measure 3
1000
0010
1000
0000
0100
0000
1000
0000
0010
0000
0100
0000
0001
0000
0010
0000
,  // measure 4
0001
0010
0001
0000
0100
0000
0001
0000
0010
0000
0100
0000
1000
0000
0010
0000
,  // measure 5
0110
0000
0101
0000
0001
0011
0000
0010
,  // measure 6
0100
0010
0100
0000
1100
0000
0000
0000
0100
0000
0110
0000
0000
0000
0010
0000
,  // measure 7
0001
0010
0100
0000
0110
0000
0000
0000
0100
0000
1100
0000
0000
0000
1000
0000
,  // measure 8
0001
0100
0001
0000
1001
0000
0000
0000
1000
0000
1010
0000
0000
0000
0010
0000
,  // measure 9
0100
0001
0010
0000
0110
0000
0000
0000
0100
0000
1100
0000
0000
0000
1000
0000
,  // measure 10
0010
1000
0100
0000
1100
0000
0000
0000
0010
0000
0110
0000
0000
0000
0100
0000
,  // measure 11
1000
0001
0100
0000
0101
0000
0000
0000
0001
0000
0011
0000
0000
0000
0010
0000
,  // measure 12
0100
1000
0001
0000
0101
0000
0000
0000
0001
0000
0011
0000
0000
0000
0010
0100
,  // measure 13
0010
0100
0010
0100
1000
0000
0000
0001
0000
0000
0101
0000
0000
0000
0001
0000
,  // measure 14
0000
0010
0000
0100
0000
1000
0000
0100
,  // measure 15
0010
0100
0010
0000
0100
0000
1000
0000
0001
0000
0100
0000
0000
0000
0010
0000
,  // measure 16
1000
0010
0100
0000
0010
0000
1000
0000
0001
0000
0010
0000
0000
0000
0100
0000
,  // measure 17
1000
0010
0100
0000
0001
0000
0000
0010
0000
0000
0011
0000
0000
0000
0001
0000
,  // measure 18
0200
0000
0310
1000
0001
0010
0000
0001
,  // measure 19
0010
0100
1000
0000
0001
0000
1000
0000
0100
0000
1000
0000
0000
0000
0001
0000
,  // measure 20
0001
0010
1000
0000
1000
0000
0010
0000
0001
0000
0100
0000
0000
0000
0002
0000
,  // measure 21
0000
0000
0000
0000
1003
0000
0000
0001
0000
0000
0010
0000
0000
0000
0100
0000
,  // measure 22
0000
1000
0000
1001
0000
0120
0000
1030
,  // measure 23
1000
0001
0010
0000
0100
0000
1000
0000
0001
0000
0100
0000
0000
0000
0100
0000
,  // measure 24
0001
0010
0100
0000
0010
0000
0001
0000
1000
0000
0010
0000
0000
0000
0100
0000
,  // measure 25
0001
0010
0100
0000
0110
0000
0000
0010
0000
0000
0001
0000
0000
0000
0100
0000
,  // measure 26
0110
0000
1010
1000
0100
1000
0000
0001
,  // measure 27
1000
0100
0010
0000
0011
0000
0001
0000
0100
0000
0001
0000
0000
0000
1000
0000
,  // measure 28
0001
0100
0010
0000
1010
0000
1000
0000
0100
0000
1000
0000
0000
0000
0001
0000
,  // measure 29
1000
0100
0010
0000
0110
0000
0000
0010
0000
0000
0200
0000
0000
0000
0000
0000
,  // measure 30
1300
0000
1000
0100
0010
0001
0000
0001
,  // measure 31
1000
0100
1000
0001
0000
2002
0000
3003
,  // measure 32
1001
0000
0001
0010
0001
0100
0000
0010
,  // measure 33
1000
0010
0100
0000
0101
0000
0000
0001
0000
0000
0011
0000
0000
0000
0110
0000
,  // measure 34
0000
1100
0100
0000
0010
0000
0001
0010
,  // measure 35
0100
1000
0001
1000
0100
0010
0000
0010
,  // measure 36
0020
0000
0130
1000
0001
0010
0000
0001
,  // measure 37
1000
0100
1100
0100
0000
0010
0000
0100
,  // measure 38
0020
0000
0031
0010
0100
1000
0000
0010
,  // measure 39
0100
0000
0001
0100
0010
1000
0000
0010
,  // measure 40
0020
0000
0130
0001
1000
0010
0000
1010
,  // measure 41
1010
0000
1000
0000
0001
0000
0000
0010
0000
0000
0011
0000
0000
0000
0101
0000
,  // measure 42
0000
1001
1000
0000
0020
0000
1000
0000
,  // measure 43
1030
0000
1000
0000
0010
1000
0010
0000
1000
0000
0100
0000
0010
0000
0000
0000
,  // measure 44
0110
0000
0000
0000
1100
0000
1000
0000
0001
0000
0100
0000
0000
0000
0001
0100
,  // measure 45
0010
1000
0001
0000
1001
0000
1000
0000
0000
0000
0100
0000
0000
0000
0010
0000
,  // measure 46
0011
0000
0001
0010
0100
0001
0000
0001
,  // measure 47
0100
1000
0100
0010
0100
1000
0000
0100
,  // measure 48
0010
0001
0100
0000
0010
0000
1000
0000
0100
0000
0010
0000
0000
0000
0010
0000
,  // measure 49
0001
1000
0010
0000
1000
0000
0010
0000
0100
0000
0001
0000
0010
0000
0100
0000
,  // measure 50
1000
0100
0010
0001
0100
0010
1000
0010
,  // measure 51
0100
0000
0101
0000
0001
0000
1000
0000
2200
3300
0100
0000
0110
0000
0000
0000
,  // measure 52
0010
0001
0100
0001
0000
0001
1000
0001
,  // measure 53
0010
0001
1000
0100
0000
1000
0100
0010
,  // measure 54
0001
0100
0010
0100
0000
0001
0100
0001
,  // measure 55
0010
0100
1000
0001
0000
1000
1001
0000
,  // measure 56
0011
0000
0100
1100
0000
0000
1100
0100
,  // measure 57
0010
0001
0010
0000
0011
0000
1001
0000
,  // measure 58
1010
0000
0100
0101
0000
0000
0101
0100
,  // measure 59
0010
1000
0010
0000
1010
0000
1001
0000
,  // measure 60
0101
0000
0010
1010
0000
0000
1010
0010
,  // measure 61
0100
0001
0100
0000
0101
0000
0000
0000
,  // measure 62
1001
0000
1000
1010
0000
0010
0110
0000
,  // measure 63
0100
0101
0000
0001
0011
0000
1001
0000
,  // measure 64
2010
0000
0000
0000
3000
0000
0000
0000
0000
0000
0000
0000
0010
1000
0010
0000
,  // measure 65
0100
0000
0001
0000
0010
0000
0001
0000
0010
0000
0001
0000
0000
0000
0000
0200
,  // measure 66
0000
0000
0000
0000
,  // measure 67
0000
0000
0000
0000
,  // measure 68
0000
0000
0000
0000
,  // measure 69
0000
0000
0000
0000
0000
0000
0000
0000
0000
0310
0000
0000
0000
0000
0000
0000
;
