#TITLE:Space Space Shooter;
#SUBTITLE:;
#ARTIST:Kick & Punch;
#TITLETRANSLIT:;
#SUBTITLETRANSLIT:;
#ARTISTTRANSLIT:Kick and Punch;
#GENRE:;
#CREDIT:;
#MENUCOLOR:PURPLE;
#METERTYPE:DDR X;
#BANNER:Space Space Shooter.png;
#BACKGROUND:Space Space Shooter-bg.png;
#LYRICSPATH:;
#CDTITLE:;
#MUSIC:Space Space Shooter.mp3;
#OFFSET:-0.100;
#SAMPLESTART:48.000;
#SAMPLELENGTH:15.000;
#SELECTABLE:YES;
#LISTSORT:;
#DISPLAYBPM:160.000;
#BPMS:0.000=160.020,223.000=172.500,224.000=160.020;
#STOPS:;
#BGCHANGES:;
#ATTACKS:;

//---------------dance-single - ----------------
#NOTES:
     dance-single:
     :
     Hard:
     13:
     0.714,0.693,0.429,0.165,0.243: // measure 1
0020
0000
1030
1010
0000
0000
0000
0000
,  // measure 2
0200
0000
1300
1100
0000
0000
0000
0000
,  // measure 3
0020
0000
0031
0011
0000
0000
0000
0000
,  // measure 4
0200
0000
0301
0000
0010
0000
0100
0000
0000
0000
1000
0001
1000
0001
1000
0000
,  // measure 5
0000
0010
0000
0010
0000
1000
0000
1000
,  // measure 6
0000
0001
0000
0001
0000
0100
0000
0100
,  // measure 7
0000
0010
0000
1000
0000
0001
0000
0010
,  // measure 8
0100
0000
1000
0000
0010
0000
0100
0000
0001
0000
0010
0000
0100
0010
0000
0000
,  // measure 9
0200
0000
0000
0000
1300
0000
0010
0000
0100
0000
0001
0100
0000
0001
0100
0000
,  // measure 10
0020
0000
0000
0000
1030
0000
0100
0000
0010
0000
0001
0010
0000
0001
0010
0000
,  // measure 11
0200
0000
0000
0000
0310
0000
0001
0000
1000
0000
0001
1000
0000
1000
0001
0000
,  // measure 12
0200
0000
0310
0000
1000
0000
0100
0000
0010
0000
0100
1000
0001
0100
0010
0000
,  // measure 13
1000
0000
0010
0000
1000
0000
0100
0000
0010
0000
0001
0010
0000
0001
0100
0000
,  // measure 14
0001
0000
0010
0000
0001
0000
0100
0000
0010
0000
1000
0010
0000
1000
0100
0000
,  // measure 15
0010
0000
0001
0000
1000
0000
0100
0000
0010
0000
0100
1000
0000
1000
0001
0000
,  // measure 16
0010
0000
0100
0000
1000
0000
0001
0000
1000
0001
1000
0001
0010
0100
0010
0000
,  // measure 17
0100
1000
0001
0100
0001
0010
0000
0010
,  // measure 18
0100
0001
0100
1000
0010
0000
0000
1010
,  // measure 19
0010
0100
0010
0100
0001
0010
0001
0100
,  // measure 20
0010
1000
0100
0010
0001
0000
0011
0000
,  // measure 21
0001
1000
0100
0010
1000
0010
0000
0010
,  // measure 22
0001
0100
0010
1000
1010
0000
0000
0000
,  // measure 23
0020
0000
0230
0000
0302
0013
0100
0010
,  // measure 24
0100
1000
0001
0010
0200
0000
2300
0000
,  // measure 25
3001
0011
0100
0110
,  // measure 26
1100
0101
0011
1010
,  // measure 27
1000
0010
0001
0100
0000
0100
0010
0100
,  // measure 28
0001
0010
0001
0010
0100
1000
0010
0100
,  // measure 29
0001
0011
0010
0110
,  // measure 30
0101
1100
1010
0011
,  // measure 31
1001
0000
0110
0000
0100
0010
0000
0100
,  // measure 32
1000
0000
0100
0010
0100
0010
0002
0000
0000
2003
0000
0000
,  // measure 33
3001
0000
0011
0000
0010
0010
0100
0000
,  // measure 34
1000
1000
0001
0001
1000
1000
0000
0010
,  // measure 35
1000
0001
0100
0001
1000
0000
0100
0100
,  // measure 36
0010
0000
0001
0000
0010
0000
0001
0000
0000
0000
1000
0010
1000
0100
0010
0000
,  // measure 37
0100
0000
0110
0000
0010
0010
0100
0000
,  // measure 38
1000
1000
0001
0001
1000
1000
0000
0010
,  // measure 39
2000
0000
3002
0000
0103
0100
0001
0000
,  // measure 40
0010
0100
0000
0110
0000
0100
1000
0001
,  // measure 41
0010
0000
0000
0000
0110
0000
0000
0010
0000
0010
0001
0000
0011
0000
0000
0000
,  // measure 42
0001
0001
1000
1000
0001
0001
0000
0000
,  // measure 43
0010
0000
0000
0000
0110
0000
0000
0010
0000
0010
1000
0000
1010
0000
0000
0000
,  // measure 44
0010
0000
0000
0000
0110
0000
0000
0010
0000
0010
0001
0010
0100
1000
0001
0000
,  // measure 45
1000
0001
0010
0001
0100
0001
1000
0001
,  // measure 46
0010
1000
0010
1000
0100
1000
0100
1000
,  // measure 47
0100
0001
0100
0001
0010
0001
0010
0001
,  // measure 48
0010
0001
0010
0000
0001
0100
0001
0000
1000
0001
1000
0000
0100
0010
0100
0000
,  // measure 49
1000
0000
1100
0000
0100
0100
0010
0000
,  // measure 50
0001
0001
1000
1000
0001
0001
0000
0010
,  // measure 51
0001
1000
0100
1000
0010
0000
0100
0100
,  // measure 52
0001
0000
0010
0000
0001
0000
0100
0000
0000
0000
0100
0010
1000
0001
0100
0000
,  // measure 53
0001
0000
0011
0000
0100
0100
0010
0000
,  // measure 54
1000
1000
0001
0001
1000
1000
0000
0100
,  // measure 55
0010
0001
0010
0001
0100
1000
0100
1000
,  // measure 56
0100
0001
0010
1000
0000
0000
0110
0000
,  // measure 57
1000
0000
0100
0000
0010
0000
0010
0000
0100
0000
1000
0001
0000
1000
0001
0000
,  // measure 58
0001
0000
0100
0000
0010
0000
0010
0000
0100
0000
0001
1000
0000
0001
1000
0000
,  // measure 59
0010
0000
1000
0000
0010
0000
1000
0000
0001
0000
0100
0001
0000
0001
0010
0000
,  // measure 60
0100
0000
1000
0000
0100
0000
1000
0000
0010
0000
0010
0100
0001
0100
0001
0000
,  // measure 61
0001
0000
1000
0000
0100
0000
1000
0000
0010
0000
0100
0001
0000
0100
0001
0000
,  // measure 62
1000
0000
0001
0000
0100
0000
0001
0000
0010
0000
0100
1000
0000
0100
1000
0000
,  // measure 63
0010
0000
1000
0000
0001
0000
0100
0000
0010
0000
1000
0001
0000
0001
0100
0000
,  // measure 64
0010
0000
1000
0000
0100
0000
1000
0000
0010
0000
0100
0000
0001
0100
0000
0000
,  // measure 65
0100
0001
0010
0011
0000
0000
0000
0000
,  // measure 66
0100
1000
0010
1010
0000
0000
0000
0000
,  // measure 67
0010
1000
0001
1001
0000
0000
0000
0000
,  // measure 68
0010
0000
0001
0000
1000
0000
1001
0000
0000
0000
1000
0001
0100
0010
1000
0000
,  // measure 69
0010
1000
0100
1100
0000
0000
0000
0000
,  // measure 70
0010
0001
0100
0101
0000
0000
0000
0000
,  // measure 71
0100
0010
0100
0110
0000
0000
0000
0000
,  // measure 72
0001
1000
0001
1001
2000
0000
3002
0000
,  // measure 73
1003
0010
1000
0010
0100
0001
0100
0001
,  // measure 74
0010
0001
0100
1000
0010
0001
0100
1000
,  // measure 75
0010
0001
0010
0001
0100
1000
0100
1000
,  // measure 76
0010
0001
0100
1000
0010
0001
0100
1000
,  // measure 77
1100
0101
0011
1010
,  // measure 78
1100
1010
0011
0101
,  // measure 79
1001
0110
1001
0110
,  // measure 80
1000
0000
1000
1000
0100
0010
0002
0000
0000
1003
0000
0000
,  // measure 81
1001
0000
0000
0000
;
