#TITLE:September;
#SUBTITLE:;
#ARTIST:Earth, Wind, & Fire;
#TITLETRANSLIT:;
#SUBTITLETRANSLIT:;
#ARTISTTRANSLIT:;
#GENRE:Soul;
#CREDIT:;
#BANNER:bn.png;
#BACKGROUND:bg.png;
#LYRICSPATH:;
#CDTITLE:;
#MUSIC:September.ogg;
#OFFSET:0.000000;
#SAMPLESTART:42.407001;
#SAMPLELENGTH:15.000000;
#SELECTABLE:YES;
#BPMS:0.000000=121.087006
,3.000000=121.070999
,4.000000=125.124008
,8.000000=123.627991
,11.000000=123.621994
,12.000000=124.999992
,20.000000=122.284996
,23.000000=122.274002
,24.000000=124.999992
,32.000000=123.627991
,35.000000=123.621994
,36.000000=124.999992
,40.000000=123.627991
,44.000000=124.371002
,47.000000=124.364990
,48.000000=125.640991
,51.000000=125.623001
,52.000000=124.999992
,60.000000=123.627991
,63.000000=123.621994
,64.000000=123.627991
,67.000000=123.621994
,68.000000=126.408989
,71.000000=126.390999
,72.000000=125.124008
,75.000000=125.117996
,76.000000=124.882004
,79.000000=124.863998
,80.000000=124.999992
,88.000000=123.627991
,91.000000=123.621994
,92.000000=124.999992
,96.000000=125.124008
,99.000000=125.117996
,100.000000=124.882004
,103.000000=124.863998
,104.000000=125.885994
,107.000000=125.880005
,108.000000=125.640991
,111.000000=125.623001
,112.000000=125.640991
,115.000000=125.623001
,116.000000=127.308998
,120.000000=127.059006
,123.000000=127.041008
,124.000000=126.931000
,127.000000=126.925003
,128.000000=127.308998
,132.000000=126.931000
,135.000000=126.918999
,136.000000=127.308998
,140.000000=128.378006
,143.000000=128.371994
,144.000000=126.408989
,147.000000=126.390999
,148.000000=126.408989
,151.000000=126.390999
,152.000000=126.529999
,156.000000=126.282990
,159.000000=126.271004
,160.000000=126.529999
,164.000000=126.282990
,167.000000=126.264999
,168.000000=126.408989
,171.000000=126.390999
,172.000000=125.759995
,176.000000=127.186989
,179.000000=127.168991
,180.000000=126.282990
,183.000000=126.264999
,184.000000=124.999992
,192.000000=126.529999
,196.000000=125.759995
,200.000000=127.186989
,203.000000=127.168991
,204.000000=124.882004
,207.000000=124.863998
,208.000000=126.529999
,212.000000=127.585999
,215.000000=127.580009
,216.000000=126.785004
,219.000000=126.778992
,220.000000=124.635002
,223.000000=124.623001
,224.000000=128.098007
,228.000000=125.515991
,231.000000=125.503990
,232.000000=127.968002
,236.000000=127.059006
,239.000000=127.046997
,240.000000=125.759995
,244.000000=133.940994
,245.000000=129.199005
;
#STOPS:
;
#BGCHANGES:;
#KEYSOUNDS:;
#ATTACKS:;

//---------------dance-single - ----------------
#NOTES:
     dance-single:
     :
     Beginner:
     2:
     0.106198,0.156492,0.033790,0.160504,0.000000,88.000000,84.000000,4.000000,19.000000,0.000000,0.000000,0.106198,0.156492,0.033790,0.160504,0.000000,88.000000,84.000000,4.000000,19.000000,0.000000,0.000000:
0000
0000
0000
0000
,
0000
0000
0000
0000
,
0000
0000
0000
0000
,
0000
0000
0000
0000
,
0000
0000
0000
0000
,
0000
0000
1000
0000
,
1000
0000
0000
0000
,
0001
0000
0001
0000
,
0001
0000
0000
0000
,
0010
0000
0010
0000
,
0010
0000
0000
0000
,
0100
0000
0100
0000
,
0200
0000
0000
0000
,
0300
0000
1000
0000
,
1000
0000
0000
0000
,
0010
0000
0010
0000
,
0010
0000
0000
0000
,
0100
0000
0100
0000
,
0100
0000
0000
0000
,
0001
0000
0001
0000
,
0002
0000
0000
0000
,
0003
0000
0000
0000
,
2000
0000
3001
0000
,
1000
0000
1000
0000
,
0002
0000
1003
0000
,
0001
0000
0001
0000
,
0020
0000
0130
0000
,
0010
0000
0010
0000
,
0220
0000
0000
0000
,
0330
0000
0000
0000
,
0200
0000
1000
0000
,
0010
0000
1300
0000
,
0200
0000
1000
0000
,
0010
0000
1300
0000
,
2000
0000
0010
0000
,
0001
0000
3010
0000
,
2002
0000
0000
0000
,
3003
0000
0001
0000
,
0001
0000
0000
0000
,
1000
0000
1000
0000
,
1000
0000
0000
0000
,
0010
0000
0010
0000
,
0010
0000
0000
0000
,
0100
0000
0100
0000
,
0200
0000
0000
0000
,
0300
0000
0001
0000
,
0001
0000
0000
0000
,
0010
0000
0010
0000
,
0010
0000
0000
0000
,
0100
0000
0100
0000
,
0100
0000
0000
0000
,
1000
0000
1000
0000
,
2000
0000
0000
0000
,
3000
0000
0000
0000
,
0002
0000
1003
0000
,
0001
0000
0001
0000
,
2000
0000
3001
0000
,
1000
0000
1000
0000
,
0020
0000
0130
0000
,
0010
0000
0010
0000
,
0220
0000
0000
0000
,
0330
0000
0000
1001
;

//---------------dance-single - ----------------
#NOTES:
     dance-single:
     :
     Easy:
     5:
     0.237739,0.260819,0.033790,0.177399,0.000000,197.000000,193.000000,4.000000,21.000000,0.000000,0.000000,0.237739,0.260819,0.033790,0.177399,0.000000,197.000000,193.000000,4.000000,21.000000,0.000000,0.000000:
0000
0000
0000
0000
,
0000
0000
0000
0000
,
0000
0000
0000
0000
,
0000
0000
0000
0000
,
2002
0000
0000
0000
,
0000
3003
1001
0001
,
0010
0010
0100
0000
,
0010
0001
0100
0010
,
0010
1000
0100
0000
,
0010
0100
1000
0010
,
0010
0100
0001
0000
,
1000
0001
1000
0100
,
0020
0000
0001
0000
,
0100
0000
1030
0010
,
0001
0001
0100
0000
,
0010
1000
0001
0010
,
0100
0100
1000
0000
,
0010
1000
0001
0100
,
0100
0001
0010
0000
,
0100
0100
0010
0100
,
2000
0000
0010
0000
,
0001
0001
0001
3001
,
2000
0100
3001
0000
,
0001
1000
0010
1000
,
0002
0100
1003
0000
,
0001
1000
0010
1000
,
0002
0010
1003
0000
,
0001
0010
0100
1000
,
0002
0000
0010
0000
,
1000
0000
0100
0103
,
0002
0013
0002
0013
,
0000
0001
0010
0100
,
2000
3010
2000
3010
,
0000
1000
0010
0100
,
0002
0103
0002
0103
,
0000
0001
0100
0010
,
1000
0100
0001
0010
,
1000
0001
1000
1001
,
0001
0100
0010
0000
,
1000
0100
0001
0100
,
0100
0010
0001
0000
,
0001
0100
1000
0100
,
0100
0010
1000
0000
,
0010
1000
0001
0010
,
0200
0000
1000
0000
,
0010
0000
0301
0100
,
1000
1000
0001
0000
,
0100
0001
0010
0100
,
0100
1000
0010
0000
,
0100
0001
0010
1000
,
1000
0010
0001
0000
,
0100
0001
1000
0010
,
0200
0000
1000
0000
,
0010
0010
0010
0310
,
0200
0001
0310
0000
,
0100
0001
0010
0100
,
0020
0001
0130
0000
,
0010
0001
0100
0010
,
2000
0001
3100
0000
,
0100
1000
0010
0100
,
0001
0020
0130
0020
,
0130
0010
0001
1001
;

//---------------dance-single - ----------------
#NOTES:
     dance-single:
     :
     Medium:
     8:
     0.357212,0.339065,0.033790,0.304113,0.008448,296.000000,292.000000,4.000000,36.000000,0.000000,0.000000,0.357212,0.339065,0.033790,0.304113,0.008448,296.000000,292.000000,4.000000,36.000000,0.000000,0.000000:
0000
0000
0000
0000
,
0000
0000
0000
0000
0000
0000
1000
0100
,
0010
0000
0001
0010
0100
0000
1000
0010
,
0100
0000
0000
0001
0000
0000
1000
0000
0000
0001
0000
1001
,
0000
1000
0100
0001
,
1000
0000
0010
0000
0100
1000
0001
0000
,
0100
0001
0020
0000
0100
0000
0031
0000
,
0010
0001
0010
0001
0000
0000
0100
0010
,
2000
0100
3001
1000
,
0100
0010
0100
0010
0000
0000
0001
0100
,
0010
2000
0010
3100
,
1000
0100
1000
0100
0000
0000
0010
0200
,
1000
0010
1000
0010
,
0001
0000
0010
0000
1300
0100
0001
0000
,
0100
0010
0002
0000
0100
0000
1003
0000
,
0001
0010
0001
0010
0000
0000
0100
0000
,
2000
0010
3001
1000
,
0001
0010
0001
0010
0000
0000
0100
1000
,
0001
0200
1000
0310
,
0100
0010
0100
0010
0000
0000
1000
0002
,
0010
1000
0010
1003
,
0000
0001
0000
0010
0000
0100
1000
0000
,
0020
0000
1030
0010
0000
0000
1000
0000
,
0001
1000
0001
1000
0001
0000
0010
0000
,
0002
0000
0013
0001
0000
0000
0000
0000
,
0010
0100
0010
0100
0010
0000
0001
0000
,
2000
0000
3010
1000
0000
0000
0000
0000
,
0100
0010
0100
0010
0100
0000
0010
0001
,
2000
3010
2000
3001
,
2000
0000
3100
0000
1000
1000
0100
0000
,
0020
0031
0020
0130
,
0000
0010
0001
0100
0020
0000
1030
0000
,
0020
0130
0020
1030
,
0000
0010
1000
0001
0200
0000
0310
0000
,
0200
0301
0200
0310
,
0000
0100
0001
1000
0000
0001
1000
0000
,
0200
0302
0023
2030
,
3001
0000
1000
0000
1001
0000
0001
0010
,
0001
0010
0000
0000
0000
0100
0010
0001
,
0000
0100
0010
1000
0000
0000
0010
1000
,
0000
0001
0000
0000
0100
0000
0000
0000
0010
0000
1000
0000
0010
0000
1000
0000
,
0000
0001
0010
0001
0000
0000
0010
0100
,
0010
0000
0001
0000
0100
0000
0010
0010
,
1000
0010
0100
0002
0000
0000
1003
0001
,
0020
0100
1000
0100
,
0001
0000
0031
0000
0011
0000
0001
1000
,
0010
1000
0000
0000
0010
0100
0010
0100
,
0000
0010
1000
0001
0000
0000
0010
0001
,
0100
0000
0010
0000
1000
0001
1000
0001
,
0000
0010
0001
0010
0000
0000
0100
0010
,
0001
0100
1000
0100
,
0010
0100
0010
0200
0000
0000
0301
0100
,
0020
1000
0001
1030
,
0000
0010
0000
1000
0000
0001
0010
0000
,
0020
0000
0031
0010
0000
0000
0001
0000
,
1000
0001
1000
0001
1000
0000
0010
0000
,
2000
0000
3010
1000
0000
0000
0000
0000
,
0010
0100
0010
0100
0010
0000
1000
0000
,
0002
0000
0013
0001
0000
0000
0000
0000
,
0100
0010
0100
0010
0100
0000
0010
1000
,
0002
0013
0002
1003
,
2000
0000
3100
0000
1000
1000
1100
0000
;

//---------------dance-single - ----------------
#NOTES:
     dance-single:
     :
     Hard:
     11:
     0.491167,0.521639,0.135161,0.456170,0.038014,407.000000,391.000000,16.000000,54.000000,0.000000,0.000000,0.491167,0.521639,0.135161,0.456170,0.038014,407.000000,391.000000,16.000000,54.000000,0.000000,0.000000:
0000
0000
0000
0000
,
0000
0000
0000
0000
0000
0000
0000
0000
0000
0000
0000
0000
1000
0000
0010
1000
,
0010
1000
0000
0000
0001
0000
0010
0001
0010
0001
0000
0000
1000
0000
0010
0100
,
0010
0000
0000
0200
0000
0000
0000
0000
0000
0000
0000
0000
0001
0000
0000
0000
0000
0000
0000
0000
0000
0000
0000
0000
0010
0000
0000
0000
0000
0000
0000
0000
0000
0000
0000
0000
0301
0000
0000
0000
0000
0000
0000
0000
0102
0000
0000
0000
,
0000
1000
0100
1003
,
0001
0010
0100
1000
1001
1000
0100
0001
,
0100
0100
0020
0000
0031
0010
0100
1000
,
0010
0001
0010
0200
0000
0000
0301
0100
,
0020
0000
1030
0010
1000
0001
0010
0100
,
0010
0001
0100
2000
0000
0000
3100
1000
,
0200
0000
0310
0100
0010
1000
0002
0013
,
0001
0100
0010
2000
0000
0000
3001
1000
,
0200
0000
0310
0100
1000
0000
0010
0100
,
0001
0000
0010
0100
1000
0001
0001
0100
,
0010
1000
0001
0010
0001
0100
0010
0001
,
0000
0010
1000
0001
0000
0010
0100
2000
,
0000
0001
3000
0000
1000
0000
1000
0000
0010
0000
0100
0000
0001
0000
0010
0000
,
1000
0010
0001
0200
0000
0000
1300
0100
,
0002
0000
0013
0001
0010
0100
0010
0010
,
0001
0100
0010
2000
0000
0000
3001
1000
,
0200
0000
0310
0100
1000
0000
0010
0100
,
0001
1001
0000
1100
0000
0100
0010
0000
,
0012
0000
0000
0000
1000
0000
0020
0003
0100
0000
0000
0000
0031
0000
0000
0000
,
0010
1000
0001
0100
1000
0000
0001
0000
,
2000
0000
0000
0000
0001
0000
0020
3000
0100
0000
0000
0000
1030
0000
0000
0000
,
0010
0001
1000
0100
0001
0000
1000
0000
,
0002
0000
0000
0000
1000
0000
0200
0003
0010
0000
0000
0000
0301
0000
0000
0000
,
0100
1000
0001
0010
1000
0000
0001
0010
,
0100
0010
0002
0013
0001
0100
0020
1030
,
0010
0100
0002
0103
0101
0101
0101
0000
,
0002
0000
0013
0001
0200
0000
0310
0000
,
0100
0001
0010
0100
0020
0000
0031
0000
,
0020
0000
0130
0010
0002
0000
1003
0000
,
0001
1000
0010
0100
0020
0000
1030
0000
,
2000
0000
3100
1000
0020
0000
0130
0000
,
0010
2000
0001
3100
0000
1000
0100
0010
,
0001
0100
1000
0001
0010
0010
0001
0010
,
1000
1000
0100
1000
1010
0010
0100
0001
,
1000
0100
0010
0010
0001
0100
0001
0020
,
0000
0130
0010
0002
0000
1003
0001
0200
,
0000
0010
0300
0000
0100
0000
0001
0000
1000
0000
0100
0000
0010
0000
0100
0000
,
1000
1000
0100
0020
0000
0130
0010
0100
,
1000
0010
0100
0002
0000
1003
0001
0010
,
0100
0010
0001
0200
0000
0000
1300
0100
,
0001
0001
1000
0100
0001
0001
0100
1000
,
0010
0010
0001
0010
0110
0100
0001
1000
,
0100
0100
0010
0001
0000
0100
0001
0200
,
0000
0310
0100
0002
0000
1003
0001
0010
,
0100
0010
0100
2000
0000
3010
1000
0002
,
0000
0103
0001
0010
0000
0001
0010
0100
,
1000
1000
0001
0100
0000
0010
0100
0010
,
1000
0010
0100
0002
0000
1003
0001
0010
,
0100
1000
0010
0001
0010
0010
1000
0100
,
0001
0101
0000
1100
0000
2000
3001
0000
,
0012
0000
0000
0000
1000
0000
0020
0003
0100
0000
0000
0000
0031
0000
0000
0000
,
0010
1000
0001
0100
1000
0000
0001
0000
,
2000
0000
0000
0000
0001
0000
0020
3000
0100
0000
0000
0000
1030
0000
0000
0000
,
0010
0001
1000
0100
0001
0000
1000
0000
,
0002
0000
0000
0000
1000
0000
0200
0003
0010
0000
0000
0000
0301
0000
0000
0000
,
0100
1000
0001
0010
1000
0000
0001
0010
,
0100
0010
0002
0013
0001
0100
0020
1030
,
0010
0100
0002
0103
0101
1001
1100
0000
;

//---------------dance-single - ----------------
#NOTES:
     dance-single:
     :
     Challenge:
     14:
     0.658912,0.860704,0.371694,0.439275,0.337903,546.000000,502.000000,44.000000,52.000000,0.000000,0.000000,0.658912,0.860704,0.371694,0.439275,0.337903,546.000000,502.000000,44.000000,52.000000,0.000000,0.000000:
// measure 0
0000
0000
0000
0000
,  // measure 1
0000
0000
0000
0000
0000
0000
0000
0000
0000
0000
0000
0000
1000
1000
0010
0100
,  // measure 2
0001
2000
0000
0000
3001
0001
1000
0010
0100
0020
0000
0000
1030
1000
0010
0100
,  // measure 3
0001
0000
0000
0020
0000
0000
0000
0000
0000
0000
0000
0000
0130
0000
0000
0000
0000
0000
0010
0000
0000
0000
0000
0000
0001
0000
0000
0000
0000
0000
1000
0000
0000
0000
0000
0000
0010
0000
0000
0000
0000
0000
0000
0000
0100
0000
0000
0000
,  // measure 4
0110
0000
0010
1000
0100
0000
0010
0001
,  // measure 5
0100
0000
0010
1000
1001
0001
0010
1000
,  // measure 6
0001
0000
0100
0000
1000
0100
1000
0100
0010
0000
0100
0000
1000
0000
0002
0000
,  // measure 7
0103
0001
0010
0200
0000
0310
0100
1000
,  // measure 8
0010
0000
0010
0000
0001
0010
0001
0010
1000
0000
0001
0000
0010
0000
0200
0000
,  // measure 9
0010
0310
0100
2000
0000
3001
1000
0010
,  // measure 10
0100
0000
0100
0000
0001
0010
0001
0010
0100
0000
1000
0000
0001
0000
0200
0000
,  // measure 11
0310
0100
0001
2000
0001
3000
1000
0010
,  // measure 12
0001
0000
0011
0010
0100
0000
0110
0100
,  // measure 13
0001
0000
0101
0001
1001
1000
0100
0010
,  // measure 14
0100
0100
1000
0010
0000
0010
0100
0002
,  // measure 15
0000
0000
1003
0000
0001
0000
0020
0000
0000
0000
0130
0000
0010
0000
0001
1000
,  // measure 16
0000
0001
1000
0000
0001
0000
0011
0000
0000
0000
0110
0000
0100
0000
1000
0000
,  // measure 17
0010
0001
1000
0200
0000
0310
0100
0010
,  // measure 18
1000
0001
0010
0110
0000
0011
0001
1000
,  // measure 19
0010
0000
0100
0000
0001
0000
1000
0001
1000
0000
0010
0000
0100
0000
0010
0000
,  // measure 20
1000
0000
0000
0000
1100
0000
0100
0000
0010
0000
0001
0010
0100
1000
0000
0100
,  // measure 21
1000
0000
1001
0000
0001
0000
0101
0000
0100
0000
0010
1000
0001
0000
0000
0000
,  // measure 22
0021
0100
0001
0130
0000
0010
0100
1000
,  // measure 23
1010
0011
0010
0100
0002
0000
1003
0000
,  // measure 24
0012
0100
0010
0103
0000
0001
0100
0010
,  // measure 25
1010
0011
0010
1000
0200
0000
0310
0000
,  // measure 26
1200
0010
1000
0310
0000
0100
1000
0010
,  // measure 27
0110
0000
0101
0000
0001
0000
1000
0000
0100
0000
0000
0000
0010
0000
0100
0010
,  // measure 28
0001
0100
2000
3001
1000
0100
0002
1003
,  // measure 29
0001
0010
2000
3001
1001
1010
0011
0000
,  // measure 30
0201
0000
1300
0100
0002
0000
1003
0000
,  // measure 31
0001
0010
1000
0001
0200
0000
1300
0000
,  // measure 32
1200
0000
0301
0100
2000
0000
3001
0000
,  // measure 33
1000
0010
0001
1000
0200
0000
0301
0000
,  // measure 34
0201
0000
1300
0100
0002
0000
1003
0000
,  // measure 35
0001
0000
0010
0000
1000
0000
0001
0000
0000
0000
0100
0000
0001
0000
0100
1000
,  // measure 36
0010
1000
0010
1000
0001
0010
0001
0010
0100
0100
0010
0100
1000
0010
1000
0010
,  // measure 37
0100
0100
0010
0100
0001
0010
0001
0010
0001
0000
0010
0100
1000
0001
0010
0100
,  // measure 38
1000
1000
0010
1000
0000
0010
0100
0002
,  // measure 39
0000
0000
0013
0000
0001
0000
0200
0000
0020
0000
0030
0000
0301
0000
0100
0001
,  // measure 40
0000
0001
1000
0000
0100
0000
0110
0000
0000
0000
1001
0000
0001
0000
0100
0000
,  // measure 41
1000
1000
0100
0020
0000
1030
0010
0100
,  // measure 42
0001
0001
0010
0110
0000
1100
1000
0001
,  // measure 43
0100
0000
1000
0000
0100
0000
0001
0020
0100
0000
0000
0000
0031
0000
0010
0000
,  // measure 44
0001
0100
0001
0100
0010
1000
0010
1000
0100
0100
0010
0100
1000
0010
1000
0010
,  // measure 45
0100
0100
0001
0010
0001
0001
1000
0010
1000
0000
0010
0100
0001
0000
0100
0000
,  // measure 46
0001
1001
1000
0010
0000
0100
0010
2000
,  // measure 47
0001
3100
1000
0001
2000
0100
3001
1000
,  // measure 48
0001
0011
0010
0100
2000
3010
1000
0001
,  // measure 49
0020
0001
0130
0010
0002
0100
0013
0001
,  // measure 50
0100
0110
0010
1000
0001
0011
0000
0110
,  // measure 51
0200
0000
1000
0000
0310
0000
0100
1000
0001
0000
0100
0000
0010
0000
1000
0000
,  // measure 52
0100
0010
0100
0010
0001
1000
0001
1000
0010
0010
1000
0001
0010
0100
0010
0100
,  // measure 53
1000
1000
0010
1000
0001
0001
0100
0001
1000
1000
0200
0310
0100
1000
0001
0100
,  // measure 54
0010
0000
0110
0000
0100
0000
0001
0000
1000
0000
1001
0000
0001
0010
0001
0100
,  // measure 55
0010
0000
0100
0000
0001
1000
0001
1000
0100
0000
0010
0000
0100
0000
1000
0000
,  // measure 56
0010
0000
0110
0000
0100
0000
0001
0000
1000
0000
0001
0010
0200
0000
0000
0000
,  // measure 57
1000
0010
0001
0320
0230
2300
3002
0203
,  // measure 58
0310
0000
0110
0000
0100
0000
0001
0000
1000
0000
0100
1000
0010
2000
0000
0000
,  // measure 59
3002
0010
0103
0001
1000
0000
0001
0020
,  // measure 60
0130
0010
0002
1003
0001
0100
0020
0130
,  // measure 61
0010
1000
0002
1003
1001
0011
0110
0000
;
