#TITLE:No One Knows;
#SUBTITLE:;
#ARTIST:Queens of the Stone Age;
#TITLETRANSLIT:;
#SUBTITLETRANSLIT:;
#ARTISTTRANSLIT:;
#GENRE:;
#CREDIT:;
#MENUCOLOR:;
#METERTYPE:DDR X;
#BANNER:No One Knows.png;
#BACKGROUND:No One Knows-bg.png;
#LYRICSPATH:;
#CDTITLE:;
#MUSIC:No One Knows.mp3;
#OFFSET:-0.220;
#SAMPLESTART:14.160;
#SAMPLELENGTH:15.000;
#SELECTABLE:YES;
#LISTSORT:;
#DISPLAYBPM:170.000;
#BPMS:0.000=170.560,24.000=172.000,32.000=173.000,48.000=169.000,88.000=172.000,144.000=170.500,168.000=170.000,176.000=169.000,212.000=168.000,227.667=167.000,228.000=160.000,244.000=166.000,298.000=170.000;
#STOPS:;
#BGCHANGES:-2.000=No One Knows.avi=1.000=0=0=0,
99999=-nosongbg-=1.000=0=0=0 // don't automatically add -songbackground-
;
#ATTACKS:;

//---------------dance-single - ----------------
#NOTES:
     dance-single:
     :
     Hard:
     13:
     0.659,0.769,0.246,0.137,0.957: // measure 1
1001
0000
1001
0000
,  // measure 2
1001
0000
1001
0002
,  // measure 3
1003
0000
0000
0010
0000
0000
0010
0000
1000
0001
0000
0000
,  // measure 4
0010
0000
0000
0010
0000
0001
1000
0000
0000
0002
0000
0000
,  // measure 5
1003
0000
0000
0010
0000
0000
0010
0000
1000
0100
0000
0000
,  // measure 6
0010
0000
0000
0010
0000
0001
0100
0000
0000
0020
0000
0000
,  // measure 7
1030
0000
0000
0010
0000
0000
0010
0000
1000
0001
0000
0000
,  // measure 8
1000
0000
0000
1000
0000
0010
1000
0000
0000
0002
0000
0000
,  // measure 9
1003
0000
0000
0010
0000
0000
0010
0000
1000
0001
0000
0000
,  // measure 10
0100
0000
0000
0001
0000
0000
1000
0100
0010
0001
0000
0001
,  // measure 11
1000
0001
0010
0010
,  // measure 12
0000
0000
0000
0110
0000
0000
0000
0000
0000
0100
0000
1000
,  // measure 13
0002
0000
1000
1003
,  // measure 14
0000
0000
0000
1010
0000
0000
0000
0000
0000
1000
0000
0100
,  // measure 15
0010
0001
0010
0110
,  // measure 16
0000
2100
0001
3001
,  // measure 17
0000
0000
0000
0110
,  // measure 18
0000
0000
0000
0102
0000
0000
1003
0100
0010
0001
0000
0001
,  // measure 19
1000
1010
0010
1010
,  // measure 20
1000
0000
0000
1001
0000
0000
0001
0000
0010
0100
0000
0100
,  // measure 21
1000
1100
0100
0110
,  // measure 22
0000
2100
0001
3001
,  // measure 23
0001
0000
0000
0010
0000
0000
0010
0000
0001
1000
0000
0000
,  // measure 24
0010
0000
0000
0010
0000
1000
0001
0000
0001
0020
0000
0000
,  // measure 25
0130
0000
0000
1000
0000
0000
1000
0000
0001
1000
0000
0000
,  // measure 26
0010
1000
0001
0100
,  // measure 27
0100
0110
0010
1010
,  // measure 28
1000
0000
0000
1100
0000
0000
0100
0000
0010
0100
0000
1000
,  // measure 29
0100
1100
1000
1001
,  // measure 30
0000
0102
0010
0013
,  // measure 31
0100
0000
0000
1100
0000
0000
1000
0000
0001
0100
0000
0000
,  // measure 32
0001
0000
0000
0001
0000
0010
0100
1000
0010
0200
0000
0000
,  // measure 33
0301
0000
0000
0101
0000
0000
1000
0000
0001
0100
0000
0000
,  // measure 34
0001
0000
0000
0010
0000
0100
1000
0000
1000
0001
0000
0000
,  // measure 35
1000
0001
1000
0001
0010
0001
1000
0001
1000
0001
0010
0001
,  // measure 36
2000
0000
0000
3200
0000
0000
0310
0001
0010
0001
0000
0001
,  // measure 37
0100
0000
0100
0010
0000
0010
1000
0000
1000
0100
0000
0100
,  // measure 38
0010
0000
0010
0001
0000
0001
1000
0000
1000
0010
0000
0000
,  // measure 39
1000
0001
1000
0001
0010
0001
1000
0001
1000
0001
0010
0001
,  // measure 40
2000
0000
0000
3200
0000
0000
0310
0001
0010
0001
0000
0001
,  // measure 41
0100
0000
0100
0010
0000
0010
1000
0000
1000
0100
0000
0100
,  // measure 42
0010
0000
0010
0001
0000
0001
1000
0000
1000
0100
0000
0000
,  // measure 43
1000
0100
1000
0000
0000
0000
0000
0000
0100
1000
0100
0000
0000
0000
0000
0000
,  // measure 44
0100
0000
0000
0010
0000
0000
0100
0000
0000
0000
0000
0000
0000
0000
0000
0000
0000
0000
0000
0000
0000
0000
0000
0000
0010
0000
0000
0001
0000
0000
0010
0000
0000
0000
0000
0000
0000
0000
0000
0000
0000
0000
0000
0000
0100
0000
0000
0000
,  // measure 45
0001
0000
0001
0100
0000
0100
0010
0000
0010
0100
0000
0100
,  // measure 46
0001
0000
0001
0100
0000
0100
0010
0000
0010
1000
0000
0000
,  // measure 47
0100
0000
0000
1100
0000
1000
0000
0000
0001
0100
0000
0000
,  // measure 48
0001
0000
0000
0101
0000
0000
0100
0000
0010
1000
0000
0100
,  // measure 49
0010
0000
0010
0100
0000
0100
1000
0000
1000
0100
0000
0100
,  // measure 50
0010
0000
0010
0100
0000
0100
0001
0000
0001
0100
0001
0100
,  // measure 51
1000
0000
1000
0010
0000
1000
0010
0000
1000
0010
0000
0100
,  // measure 52
0001
0000
0100
0001
0000
0100
0001
0000
0100
0001
0000
0010
,  // measure 53
0001
0000
0010
0001
0000
0010
0001
0000
0010
0001
0000
0010
,  // measure 54
0100
0000
1000
0000
0001
0000
0010
0000
0100
0000
1000
0000
,  // measure 55
0010
0000
1000
0010
0000
1000
0010
0000
1000
0010
0000
0100
,  // measure 56
0001
0000
0100
0001
0000
0100
0001
0000
0100
0001
0000
0010
,  // measure 57
0001
0000
0010
0001
0000
0010
0001
0000
0010
0001
0000
1000
,  // measure 58
0100
0000
0010
0000
0001
0000
1000
0000
0100
0000
0100
0000
,  // measure 59
0010
0000
0100
0000
1000
0000
0001
0000
0100
0000
0100
0000
,  // measure 60
0010
0000
1000
0000
0001
0000
0010
0000
0001
0000
0001
0000
,  // measure 61
0010
0000
0001
0000
1000
0000
0010
0000
1000
0000
1000
0000
,  // measure 62
0100
1000
0100
1000
0000
1000
0010
0000
1000
0010
0000
0010
,  // measure 63
0100
0001
0100
0001
0000
0001
0010
0000
0001
0010
0000
0100
,  // measure 64
1000
0010
1000
0010
0000
0100
0001
0010
0100
0010
0000
0100
,  // measure 65
1000
0100
1000
0100
0000
0100
0001
0100
0010
0000
0000
0000
,  // measure 66
1000
0100
1000
0100
0010
0100
0010
0001
0010
0001
1000
0001
,  // measure 67
0000
0000
0000
0000
0000
0000
0000
0000
0000
0000
0100
0001
0100
0000
0000
0000
0000
0000
1000
0000
0010
0000
1000
0000
,  // measure 68
0100
0000
0010
0000
0001
0000
0010
0000
0100
0000
1000
0000
0000
0000
0000
0000
0001
1000
0001
0000
0000
1000
0000
0000
,  // measure 69
0000
0010
0000
0000
0000
0000
0000
0000
0000
0000
0000
0000
0000
0000
0000
0100
0001
0100
0000
0000
0010
0000
0000
0000
,  // measure 70
0000
0000
0000
0000
0000
0000
0000
0000
1000
0010
1000
0000
0000
0100
0000
0000
0000
0000
0000
0000
0000
0000
0000
0000
,  // measure 71
0000
0000
0010
0001
0010
0000
0000
0100
0000
0000
0000
0000
0000
0000
0000
0000
0000
1000
0010
1000
0000
0000
0000
0000
,  // measure 72
0000
0000
0000
0000
0000
0010
0000
0000
0000
0000
0000
0000
0000
0000
0000
0000
0100
0000
0000
0000
0001
0000
0000
0000
,  // measure 73
0010
0000
0100
0000
0000
0000
0000
0000
0100
0000
1000
0000
,  // measure 74
0010
0000
0100
0000
0000
0000
0000
0000
0001
0000
0010
0000
,  // measure 75
0100
0000
1000
0000
0000
0010
0000
0000
1000
0010
1000
0001
,  // measure 76
0000
0000
0001
0010
0001
1000
0000
0000
1000
0100
1000
0001
,  // measure 77
0000
0000
0001
0100
0001
1000
0000
0000
1001
0000
0000
0000
;
