#TITLE:New Rules;
#SUBTITLE:;
#ARTIST:Dua Lipa;
#TITLETRANSLIT:;
#SUBTITLETRANSLIT:;
#ARTISTTRANSLIT:;
#GENRE:Tropical Pop;
#CREDIT:;
#BANNER:New Rules.png;
#BACKGROUND:New Rules-bg.png;
#LYRICSPATH:;
#CDTITLE:;
#MUSIC:New Rules.ogg;
#OFFSET:-0.446631;
#SAMPLESTART:58.380001;
#SAMPLELENGTH:15.000000;
#SELECTABLE:YES;
#BPMS:0.000000=116.022003
;
#STOPS:
;
#BGCHANGES:-0.750=New Rules.avi=1.000=0=0=0=StretchNoLoop====,
99999=-nosongbg-=1.000=0=0=0 // don't automatically add -songbackground-
;
#KEYSOUNDS:;
#ATTACKS:;

//---------------dance-single - ----------------
#NOTES:
     dance-single:
     :
     Beginner:
     1:
     0.077163,0.140229,0.010387,0.031162,0.000000,52.000000,51.000000,1.000000,3.000000,0.000000,0.000000,0.077163,0.140229,0.010387,0.031162,0.000000,52.000000,51.000000,1.000000,3.000000,0.000000,0.000000:
0000
0000
0000
0000
,
0000
0000
0000
0000
,
0000
0000
0000
0000
,
0000
0000
0000
0000
,
1000
0000
0000
0000
,
0001
0000
0000
0000
,
0000
0000
0100
0000
,
0000
0100
0000
0000
,
0010
0000
0000
0000
,
0100
0000
0000
0000
,
0000
0000
0001
0000
,
0000
1000
0000
0000
,
0200
0000
0000
0000
,
0300
0000
0000
0000
,
0010
0000
0000
0000
,
0010
0000
0000
0000
,
0002
0000
0000
0000
,
0003
0000
0000
0000
,
1000
0000
0000
0000
,
1000
0000
0000
0000
,
0001
0000
0001
0000
,
0001
0000
0000
0000
,
1000
0000
1000
0000
,
1000
0000
0000
0000
,
0100
0000
0100
0000
,
0100
0000
0000
0000
,
0010
0000
0010
0000
,
0020
0000
0000
0000
,
0030
0000
0000
0000
,
0000
0100
0000
0000
,
1000
0000
0000
0000
,
0000
0100
0000
0000
,
1000
0000
0000
0000
,
0000
0001
0000
0000
,
0100
0000
0000
0000
,
0000
0001
0000
0000
,
0100
0000
0000
0000
,
0010
0000
0010
0000
,
0010
0000
0010
0000
,
1000
0000
1000
0000
,
1000
0000
1000
0000
,
0001
0000
0001
0000
,
0001
0000
0001
0000
,
0100
0000
0100
0000
,
0100
0000
0100
0000
,
0110
0000
0000
0000
;

//---------------dance-single - ----------------
#NOTES:
     dance-single:
     :
     Easy:
     5:
     0.198843,0.233715,0.051937,0.093486,0.000000,134.000000,129.000000,5.000000,9.000000,0.000000,0.000000,0.198843,0.233715,0.051937,0.093486,0.000000,134.000000,129.000000,5.000000,9.000000,0.000000,0.000000:
0000
0000
0000
0000
,
0000
0000
0000
0000
,
0000
0000
0000
0000
,
0000
0000
0000
0000
,
0010
0100
0010
0001
,
1000
1000
0020
0130
,
0000
0000
0020
1030
,
0000
0020
1030
0000
,
0010
0100
0010
1000
,
0001
0001
0020
0130
,
0000
0000
0020
0031
,
0000
0020
0031
0000
,
0012
0000
1000
0000
,
0100
1000
0100
0103
,
0000
0000
0100
0100
,
0000
0000
0010
1000
,
2010
0000
0001
0000
,
0100
0001
0100
3100
,
0000
0000
0100
0100
,
0000
0000
1000
0000
,
1001
0000
0001
0000
,
0100
1000
0100
0001
,
0010
0000
0100
0000
,
0010
0010
0001
1000
,
1001
0000
0001
0000
,
0100
0100
0010
1000
,
0001
0000
0010
0010
,
0100
1000
0001
0020
,
0030
0000
0000
0000
,
0000
0100
1000
0100
,
0010
0010
0001
1000
,
0000
0010
1000
0010
,
0100
0100
0001
1000
,
0000
0001
0010
0001
,
0100
0100
0010
1000
,
0000
0001
0100
0001
,
0010
0010
0100
1000
,
0010
0100
0010
0100
,
0001
0001
0001
0001
,
0010
0100
0010
0100
,
1000
1000
1000
1000
,
0010
1000
0010
1000
,
0001
0001
0001
0001
,
0010
0001
0010
0001
,
1000
1000
1000
1000
,
1001
0000
0000
0000
;

//---------------dance-single - ----------------
#NOTES:
     dance-single:
     :
     Hard:
     12:
     0.461495,0.543518,0.280458,0.508980,0.301233,311.000000,284.000000,27.000000,49.000000,0.000000,0.000000,0.461495,0.543518,0.280458,0.508980,0.301233,311.000000,284.000000,27.000000,49.000000,0.000000,0.000000:
0000
0000
0000
0000
,
0000
0000
0000
0000
,
0000
0000
0000
0000
,
0000
0000
0000
0000
,
1000
0001
0100
0001
1000
0001
0100
0001
,
1000
0001
0010
0100
2000
0000
3010
1000
,
0100
0000
0010
0100
0100
1000
0001
0000
,
0010
0100
0100
1000
0002
0103
0000
0000
,
0001
1000
0100
1000
0001
1000
0100
1000
,
0001
1000
0010
0100
0002
0000
0013
0001
,
0100
0000
0010
0100
0100
0001
1000
0000
,
0010
0000
0100
0000
0100
0000
0001
0000
2000
0000
3100
0000
0000
0000
0000
1000
,
0020
0000
0000
0200
0000
0000
0030
0000
0001
0000
0000
0000
0301
0000
0000
0100
,
0000
0010
0000
1000
0010
0000
1000
0000
0001
0000
0000
0000
0010
0100
1000
0000
,
0001
0000
0000
0000
0100
0000
0000
0000
0001
0000
0000
0000
0010
0100
1000
0000
,
0001
0000
0010
0000
0001
0000
1000
0001
,
0020
0000
0200
0000
0000
0000
0030
0000
1000
0000
0000
0000
1300
0000
0000
0100
,
0000
1000
0000
0001
1000
0000
0010
0000
0100
0000
0100
0000
0001
0010
0100
0000
,
0000
0000
0000
0000
1000
0000
0000
0000
1000
0000
0001
0000
0001
0010
0200
0000
,
0000
2300
0000
0000
0001
0000
3001
0000
,
1001
0000
0000
0000
0001
0010
0100
0000
0010
0000
0100
1000
0000
0000
0000
0100
,
1000
0001
1000
0001
0100
0010
0100
0010
1000
0000
0010
1000
0100
0000
0000
0000
,
0110
0000
0000
0000
0010
0000
0001
0000
1000
0000
0010
0100
0000
0000
0002
0000
,
1003
0000
0002
0000
0013
0000
0002
0000
1003
0000
0001
1000
0000
0000
0000
0000
,
1010
0000
0000
0000
0010
0000
0100
0000
0001
0000
0010
0001
0000
0000
0000
0010
,
0100
1000
0100
1000
0001
0100
0001
0100
0010
0000
1000
0001
0020
0000
0000
0130
,
0000
0000
0000
0000
0010
0001
0010
0100
1000
0000
0001
1000
0000
0000
0000
0000
,
0020
0000
1030
0000
2000
0000
3001
0000
1001
0000
0000
0011
0000
0000
1100
0000
,
0000
2000
3200
0302
2003
3020
0032
0203
,
0310
0100
0110
0000
1010
0000
0101
0000
,
0002
0000
0000
0203
0000
0000
2300
0000
3002
0000
0023
0000
2030
0000
3200
0000
,
0310
0000
0100
0000
0010
0000
0000
0100
1000
0000
0000
0001
0010
0000
0000
0000
,
0002
0000
0000
0023
0000
0000
2030
0000
3002
0000
0203
0000
1300
0100
1000
0000
,
0100
0110
0011
1100
,
2000
0000
0000
3200
0000
0000
0302
0000
2003
0000
3020
0000
0032
0000
0203
0000
,
0301
0000
0000
0000
0100
0000
0000
0000
0001
0000
0000
0000
0100
0000
0000
0000
0000
0000
0010
0000
0000
0000
0000
0000
0100
0000
0000
0010
0000
0000
2000
0000
0000
0000
0000
0000
0000
0000
0000
0000
0000
0000
3001
0000
0000
0000
0000
0000
,
2000
0000
0000
3020
0000
0000
0032
0000
2003
0000
3200
0000
0301
0100
0001
0000
,
0010
0000
0100
1000
0000
0000
0010
0000
0100
0000
0001
1000
0000
0000
1001
0000
,
0000
0011
0000
1100
0000
1001
0000
0001
,
0100
0000
0010
1000
0000
0000
1000
0000
0100
0000
0010
0001
0000
0000
0011
0000
,
0000
0101
0000
1010
0000
1100
0000
0100
,
0010
0000
0001
1000
0000
0000
0010
0000
0100
0000
0001
1000
0000
0000
1100
0000
,
0000
0011
0000
0101
0000
1010
0000
1000
,
0010
0000
0100
1000
0000
0000
0100
0000
0001
0000
0010
0100
0000
0000
1100
0000
,
0000
0000
0011
0000
0000
0000
1001
0000
0000
1000
0000
0010
0000
0100
0000
0001
,
0000
1000
0002
0000
0000
0000
0000
0000
0003
0000
0000
0000
0000
0000
0000
0000
;

//---------------dance-single - ----------------
#NOTES:
     dance-single:
     :
     Challenge:
     14:
     0.675177,0.732567,0.311620,0.176585,0.685565,455.000000,425.000000,30.000000,17.000000,0.000000,0.000000,0.675177,0.732567,0.311620,0.176585,0.685565,455.000000,425.000000,30.000000,17.000000,0.000000,0.000000:
0000
0000
0000
0000
,
0000
0000
0000
0000
,
0000
0000
0000
0000
,
0000
0000
0000
0000
,
1000
0000
1000
0001
1000
0000
0010
0000
0100
0000
0001
0100
0001
0000
0001
0000
,
0010
0000
0010
0100
0010
0000
0001
0000
1000
0000
0001
0010
0100
0000
1000
0000
,
0001
0000
0000
0100
0001
0000
1000
0000
0100
0000
0010
0100
0010
0001
1000
0000
,
0010
0000
1000
0010
1000
0000
0001
0000
0020
0000
0130
0010
0000
0000
0010
0000
,
0001
0000
0100
0001
0100
0000
0010
0000
1000
0000
0001
1000
0001
0000
0010
0000
,
0100
0000
1000
0100
1000
0000
0010
0000
0100
0000
0001
0100
0010
0000
1000
0000
,
0001
0000
0001
0100
0001
0000
0100
0000
0010
0000
1000
0001
0010
0100
1000
0000
,
0010
0000
1000
0010
1000
0000
0001
0000
0010
0000
0100
0010
0100
0000
1000
0100
,
0020
0000
0000
0032
1000
0000
0103
0000
0001
0000
0000
0100
0001
0000
0010
0100
,
1000
0010
0000
0001
0010
0000
1000
0000
0001
0000
0000
0010
0100
1000
0010
0000
,
0100
0000
0000
0001
0100
0000
0001
0000
1000
0000
0000
0100
1000
0010
0100
0000
,
0001
0000
0000
0000
0000
0000
0000
0000
0000
0010
0000
0000
0001
0000
0000
0000
0000
0000
1000
0000
0000
0000
0000
0000
0010
0000
0000
0000
1000
0000
0010
0000
0000
0000
0100
0000
0001
0000
0000
0000
0000
0000
1000
0000
0000
0000
0000
0000
,
0200
0000
0010
0000
0301
0000
0000
0000
0200
0000
0010
0000
1300
0000
0100
1000
,
0000
0010
0000
0100
0001
0000
1000
0000
1001
0000
0001
0010
0100
1000
0001
0000
,
0100
0000
0100
0001
0100
0000
0010
0000
1000
0000
0001
1000
0010
0100
1000
0000
,
0100
0000
0100
0001
0100
0000
0001
0000
1000
0000
0000
0001
0010
0000
0100
0000
,
1000
0000
0000
0000
1000
0000
0000
0000
1000
0000
0000
0000
0000
0000
0000
0001
0000
0000
0100
0000
0000
0000
0000
0000
0010
0000
0000
1000
0000
0000
0001
0000
0000
1000
0000
0000
0000
0000
0000
0100
0000
0000
0010
0000
0000
0100
0000
0000
,
1000
0010
1000
0010
0100
0001
0100
0001
0010
0010
0100
0010
0001
0000
1000
0000
,
0010
0000
0000
0000
0010
0000
0000
0000
0010
0000
0000
0000
0000
0000
0000
0100
0000
0000
0010
0000
0000
0000
0000
0000
1000
0000
0000
0001
0000
0000
0010
0000
0000
0001
0000
0000
0100
0000
0000
0000
0000
0000
0100
0000
0000
0000
0000
0000
,
0110
0000
0000
0000
0010
0000
0000
0000
0010
0000
0000
0000
1000
0000
0000
0000
0000
0000
0001
0000
0000
0000
0000
0000
0010
0000
0000
0001
0000
0000
1000
0000
0000
0100
0000
0000
0010
0000
0000
0000
0000
0000
0100
0000
0000
0000
0000
0000
,
1000
0000
0000
0000
1000
0000
0000
0000
1000
0000
0000
0000
0001
0000
0000
0100
0000
0000
0001
0000
0000
0000
0000
0000
0010
0000
0000
0000
0000
0000
0100
0000
0000
1000
0000
0000
0001
0000
0000
0100
0000
0000
0010
0000
0000
1000
0000
0000
,
0001
0010
0001
0010
0100
1000
0100
1000
0010
0010
0100
0001
1000
0000
0100
0010
,
0100
0000
0000
0000
1000
0000
0000
0000
1000
0000
0000
0000
0100
0000
0000
1000
0000
0000
0010
0000
0000
0100
0000
0000
0001
0000
0000
0001
0000
0000
1000
0000
0000
0001
0000
0000
0000
0000
0000
0000
0000
0000
0010
0000
0000
0000
0000
0000
,
0100
0000
0100
0010
0100
0000
1000
0000
0000
0001
0000
0000
0100
0001
0100
0001
0100
0001
1000
0010
1000
0010
1000
0010
,
0200
0000
0000
0000
0001
0000
0000
0000
0010
0000
0000
0000
1300
0000
0000
0000
0100
0000
0000
0000
0001
0000
0000
0000
0010
0000
0000
0000
0100
0000
1000
0100
,
1000
0100
0010
0001
1000
0000
0101
0000
0001
0000
1001
0000
1000
0000
0100
0000
,
0010
0000
0000
0000
0000
0000
0001
0000
0000
0010
0000
0000
0000
0000
0000
0010
0000
0000
0100
0000
0000
0000
0000
0000
1000
0000
0000
0000
0000
0000
0100
0000
0000
0000
0000
0000
1000
0000
0000
0000
0000
0000
0001
0000
0000
0000
0001
0000
,
0010
0100
1000
0001
0200
0000
0000
0310
0200
0000
0000
0301
0100
0000
0010
0000
,
0100
0000
0001
0010
0000
0010
0100
0000
1100
0000
1000
0000
0001
0100
0010
1000
,
0100
0010
0001
1000
0010
0000
0101
0000
0001
0000
1001
0000
1000
0000
0100
0000
,
0010
0000
0001
1000
0000
1000
0010
0000
0100
0000
0001
0000
0010
0000
0100
0000
,
1000
0000
0000
0000
0001
0000
0000
0000
0001
0000
0000
0000
0100
0000
0000
0000
0000
0000
0010
0000
0000
0000
0000
0000
1000
0000
0000
0001
0000
0000
0010
0000
0000
0000
0000
0000
0001
0000
0000
1000
0000
0000
0010
0000
0000
0000
0000
0000
,
0100
0000
0001
0010
0000
0010
1000
0000
0010
0000
0100
0000
1000
0100
0010
0000
,
0012
0000
0103
0001
0000
0000
1000
0000
2010
0000
3100
1000
0000
0000
1010
0000
,
0100
0011
0100
1010
0100
0011
0100
1000
,
2100
0000
3010
1000
0000
0000
0001
0000
0102
0000
0013
0001
0000
0000
0101
0000
,
0010
1100
0010
0101
0010
1100
0010
0001
,
2001
0000
3100
1000
0000
0000
1000
0000
1002
0000
0103
0001
0000
0000
0011
0000
,
0100
1010
0100
0011
0100
1010
0100
0001
,
2001
0000
3010
1000
0000
0000
1000
0000
1002
0000
0013
0001
0000
0000
0101
0000
,
0010
0000
1100
0000
0010
0000
0101
0000
0001
0010
0100
0010
1000
0010
0100
0010
,
0001
1000
0200
0000
0000
0000
0000
0000
0300
0000
0000
0000
0000
0000
0000
0000
;

//---------------dance-single - ----------------
#NOTES:
     dance-single:
     :
     Medium:
     9:
     0.344266,0.398420,0.218134,0.031162,0.140229,232.000000,211.000000,21.000000,3.000000,0.000000,0.000000,0.344266,0.398420,0.218134,0.031162,0.140229,232.000000,211.000000,21.000000,3.000000,0.000000,0.000000:
0000
0000
0000
0000
,
0000
0000
0000
0000
,
0000
0000
0000
0000
,
0000
0000
0000
0000
,
1000
0001
0010
0000
0001
1000
0010
0000
,
0100
0010
1000
0000
0002
0000
0013
0000
,
0001
0000
0000
1000
0010
0100
0001
0000
,
0000
1000
0010
0100
0001
0000
0000
0000
,
1000
0000
0100
0000
0010
0100
0010
0000
,
0001
0100
0001
0000
1000
0000
0100
0000
,
0010
0000
0000
0001
0010
0100
1000
0000
,
0000
0001
0010
0100
1000
0000
0000
0000
,
0002
0000
0000
0100
0000
0000
0000
0000
1000
0000
0000
0000
1003
0000
0000
0001
,
0000
0010
0000
0000
0001
0000
1000
0000
0001
0000
0000
0000
0100
0000
0100
0000
,
0010
0000
1000
0000
0001
0000
0010
0010
,
0100
0000
1000
0000
0100
1000
0010
0100
,
0002
0000
1000
0000
0000
0000
0000
0000
0100
0000
0000
0000
0103
0000
0000
0001
,
0000
0100
0000
0000
0001
0000
0010
0000
0001
0000
0000
0000
1000
0000
1000
0000
,
0010
0000
0100
0000
0001
0000
1000
1000
,
0100
0010
0001
1000
,
1010
0000
0000
0000
0010
0000
1000
0000
0001
0000
0000
0001
0000
0000
0000
0000
,
0010
0100
1000
0000
0010
0100
0001
0000
,
1001
0000
0000
0000
0001
0000
0000
0000
0100
0000
0000
0100
0000
0000
0000
0000
,
0010
0000
1000
0000
0010
0000
0100
0000
0010
0000
0000
1000
0000
0000
0000
0000
,
1001
0000
0000
0000
0001
0000
1000
0000
0010
0000
0000
0010
0000
0000
0000
0000
,
1000
0000
1000
0000
0001
0000
0001
0000
0100
0000
0001
0000
0100
0000
0000
0010
,
0000
0000
0000
0000
0000
0000
0100
0000
0001
0000
0000
0001
0000
0000
0000
0000
,
1000
0000
0100
0000
0010
0000
0001
0000
1000
0000
0000
1000
0000
0000
1000
0000
,
0000
0001
0100
0010
1000
0010
0100
0001
,
0000
1001
1001
1001
,
0001
0000
0000
0010
0000
0000
0100
0000
1000
0000
0100
0000
0010
0000
0001
0000
,
1001
1001
1001
1001
,
0001
0000
0000
0100
0000
0000
0010
0000
1000
0000
0010
0000
0100
0000
0001
0000
,
1001
0110
1001
0110
,
0100
0000
0000
1000
0000
0000
0010
0000
0100
0000
0001
0000
1000
0000
0001
0000
,
0010
0010
0010
0000
0100
1000
0000
0000
,
0010
0000
0000
1000
0000
0000
0001
0000
0100
0000
0010
0000
0100
0000
0010
0000
,
1000
0000
0000
1000
0000
0000
0000
0000
0001
0000
0000
0001
0000
0000
0010
0000
,
0000
0100
0000
1100
0000
1001
0000
0000
,
0001
0000
0000
0001
0000
0000
0000
0000
1000
0000
0000
1000
0000
0000
0010
0000
,
0000
0100
0000
0101
0000
1001
0000
0000
,
0001
0000
0000
0001
0000
0000
0000
0000
1000
0000
0000
1000
0000
0000
0100
0000
,
0000
0010
0000
0011
0000
1001
0000
0000
,
1000
0000
0000
1000
0000
0000
0000
0000
0001
0000
0000
0001
0000
0000
0100
0000
,
0000
0000
0010
0000
0000
0000
1010
0000
0000
1000
0000
0010
0000
0000
0000
0100
,
0000
0001
0000
0000
0000
0000
0000
0000
;

//---------------dance-double - ----------------
#NOTES:
     dance-double:
     :
     Hard:
     12:
     0.474850,0.543518,0.280458,0.425881,0.363557,320.000000,293.000000,27.000000,41.000000,0.000000,0.000000,0.474850,0.543518,0.280458,0.425881,0.363557,320.000000,293.000000,27.000000,41.000000,0.000000,0.000000:
00000000
00000000
00000000
00000000
,
00000000
00000000
00000000
00000000
,
00000000
00000000
00000000
00000000
,
00000000
00000000
00000000
00000000
,
00010000
00001000
00000100
00001000
00010000
00001000
00000100
00000000
,
00001000
00010000
01000000
10000000
00100000
00000000
00010000
00000000
,
00001000
00000000
00000000
00001000
00000000
00000000
00000100
00000000
00000010
00000000
00000010
00000000
00001000
00000000
00000000
00000000
,
00010000
00000000
01000000
00000000
00100000
00000000
00100000
00000000
10000000
00000000
00000000
01000000
00000000
00000000
00010000
00000000
,
00001000
00010000
01000000
00010000
00001000
00010000
01000000
00000000
,
00010000
00001000
00000100
00000001
00000010
00000000
00001000
00000000
,
00010000
00000000
00000000
00010000
00000000
00000000
01000000
00000000
00100000
00000000
00100000
00000000
00010000
00000000
00000000
00000000
,
00001000
00000000
00000100
00000000
00000010
00000000
00000010
00000000
00000001
00000000
00000000
00000100
00000000
00000000
00001000
00000000
,
00010000
00000000
00000000
01000000
00000000
00000000
10000000
00000000
00100000
00000000
00000000
01000000
00010000
00000000
10000000
01000000
,
00000000
00100000
00000000
00010000
01000000
00000000
00010000
00000000
00002000
00000000
00000000
00000000
00003010
00000100
00000010
00000000
,
00001000
00000000
00000000
00000001
00000000
00000000
00001000
00000000
00020000
00000000
00000000
00000000
00130000
01000000
00100000
00000000
,
00010000
00000000
00000000
10000000
00000000
00000000
00010000
00000000
10000000
00000000
00000000
01000000
00000000
00000000
00010000
00000000
,
00001000
00000000
00000000
00000100
00000000
00000000
00000001
00000000
00000010
00000000
00000000
00000100
00001000
00000000
00000001
00000100
,
00000000
00000010
00000000
00001000
00000100
00000000
00001000
00000000
00010000
00000000
01000000
00000000
00100000
10000000
00100000
00000000
,
10000000
00000000
00000000
01000000
00000000
00000000
00010000
00000000
00001000
00000000
00000100
00000000
00000001
00001000
00000001
00000000
,
00000100
00000000
00000000
00000010
00000000
00000000
00001000
00000000
00010000
00000000
00000000
01000000
00000000
00000000
00100000
00000000
,
10010000
00000000
00000000
00010000
00000000
01000000
00100000
00000000
10000000
00000000
01000000
00010000
00000000
00000000
00000000
00001000
,
00010000
00000100
00010000
00000100
00001000
00000010
00001000
00000010
00000100
00000000
00000001
00001000
00000100
00000000
00000000
00000000
,
00001001
00000000
00000000
00000000
00000010
00000000
00000001
00000000
00001000
00000000
00000010
00000100
00000000
00000000
00002000
00000000
,
00013000
00000000
00002000
00000000
00003010
00000000
00002000
00000000
00013000
00000000
00001000
01000000
00000000
00000000
00000000
00000000
,
10100000
00000000
00000000
00000000
00100000
00000000
01000000
00000000
00010000
00000000
10000000
01000000
00000000
00000000
00000000
00100000
,
00001000
00010000
00001000
00010000
00000010
00001000
00000010
00001000
00000001
00000000
00001000
00000001
00000020
00000000
00000000
00000130
,
00000000
00000000
00000000
00000000
00000010
00000000
00000001
00000100
00000010
00000000
00000100
00001000
00000000
00000000
00000000
00000000
,
00020000
00000000
01030000
00000000
00020000
00000000
00031000
00000000
00011000
00000000
00000000
01010000
00000000
00000000
11000000
00000000
,
00000000
20000000
32000000
03020000
00032000
00003020
00000032
00000203
,
00000310
00000100
00000110
00000000
00001010
00000000
00000101
00000000
,
00000002
00000000
00000000
00000203
00000000
00000000
00002300
00000000
00023000
00000000
00230000
00000000
20300000
00000000
32000000
00000000
,
03100000
00000000
00010000
00000000
10000000
00000000
00000000
01000000
00010000
00000000
00000000
00001000
00000010
00000000
00000000
00000000
,
00000002
00000000
00000000
00000023
00000000
00000000
00002030
00000000
00023000
00000000
02030000
00000000
13000000
01000000
10000000
00000000
,
01000000
01100000
00110000
11000000
,
20000000
00000000
00000000
32000000
00000000
00000000
03020000
00000000
00032000
00000000
00003020
00000000
00000032
00000000
00000203
00000000
,
00000301
00000000
00000000
00000000
00000100
00000000
00000000
00000000
00000001
00000000
00000000
00000000
00000100
00000000
00000000
00000000
00000000
00000000
00000010
00000000
00000000
00000000
00000000
00000000
00000100
00000000
00000000
00001000
00000000
00000000
00020000
00000000
00000000
00000000
00000000
00000000
00000000
00000000
00000000
00000000
00000000
00000000
01030000
00000000
00000000
00000000
00000000
00000000
,
20000000
00000000
00000000
30200000
00000000
00000000
00320000
00000000
00032000
00000000
00003200
00000000
00000301
00000100
00000001
00000000
,
00000010
00000000
00000100
00001000
00000000
00000000
00000010
00000000
00000100
00000000
00000001
00001000
00000000
00000000
00001001
00000000
,
00000000
00010010
00000000
01001000
00000000
10010000
00000000
10000000
,
00100000
00000000
01000000
00010000
00000000
00000000
00100000
00000000
01000000
00000000
10000000
00010000
00000000
00000000
10010000
00000000
,
00000000
00101000
00000000
00010100
00000000
00001001
00000000
00001000
,
00000100
00000000
00000010
00001000
00000000
00000000
00010000
00000000
00001000
00000000
00000100
00000010
00000000
00000000
00001001
00000000
,
00000000
00010100
00000000
00101000
00000000
10010000
00000000
00010000
,
01000000
00000000
00100000
00010000
00000000
00000000
00001000
00000000
00010000
00000000
01000000
00100000
00000000
00000000
10010000
00000000
,
00000000
00000000
01001000
00000000
00000000
00000000
00010010
00000000
00000000
00000001
00000000
00000100
00000000
00000001
00000000
00001000
,
00000000
00000100
00000020
00000000
00000000
00000000
00000000
00000000
00000030
00000000
00000000
00000000
00000000
00000000
00000000
00000000
;

//---------------dance-double - ----------------
#NOTES:
     dance-double:
     :
     Medium:
     9:
     0.323492,0.374983,0.041549,0.051937,0.135035,218.000000,214.000000,4.000000,5.000000,0.000000,0.000000,0.323492,0.374983,0.041549,0.051937,0.135035,218.000000,214.000000,4.000000,5.000000,0.000000,0.000000:
00000000
00000000
00000000
00000000
,
00000000
00000000
00000000
00000000
,
00000000
00000000
00000000
00000000
,
00000000
00000000
00000000
00000000
,
10000000
00010000
00100000
00000000
00010000
10000000
00100000
00000000
,
01000000
00001000
00010000
00000100
00000020
00000000
00000031
00000000
,
00001000
00000000
00000000
00000100
00010000
00001000
00100000
00000000
,
00000000
00001000
00010000
00000100
00000010
00000000
00000000
00000000
,
00000001
00001000
00000010
00000000
00001000
00000001
00000010
00000000
,
00000100
00010000
00001000
01000000
00200000
00000000
10300000
00000000
,
00010000
00000000
00000000
01000000
00001000
00010000
00000010
00000000
,
00000000
00010000
00001000
01000000
00100000
00000000
00000000
00000000
,
20000000
00000000
00000000
01000000
00000000
00000000
00000000
00000000
00010000
00000000
00000000
00000000
30010000
00000000
00000000
10000000
,
00000000
00100000
00000000
00000000
00010000
00000000
00001000
00000000
00010000
00000000
00000000
00000000
00000100
00000000
00000100
00000000
,
00000010
00000000
00000001
00000000
00001000
00000000
00000010
00000010
,
00000100
00000000
00001000
00000000
00010000
00000000
00000100
00000010
,
00000002
00000000
00001000
00000000
00000000
00000000
00000000
00000000
00000100
00000000
00000000
00000000
00000103
00000000
00000000
00000001
,
00000000
00000010
00000000
00000000
00001000
00000000
00010000
00000000
00001000
00000000
00000000
00000000
01000000
00000000
01000000
00000000
,
00100000
00000000
10000000
00000000
00010000
00000000
00100000
00100000
,
01000000
00010000
00001000
01000000
,
01010000
00000000
00000000
00000000
00010000
00000000
10000000
00000000
01000000
00000000
00000000
01000000
00000000
00000000
00010000
00000000
,
00001000
00000100
00000001
00000000
00000010
00000001
00001000
00000000
,
00001100
00000000
00000000
00000000
00001000
00000000
00000001
00000000
00000100
00000000
00000000
00000100
00000000
00000000
00001000
00000000
,
00010000
01000000
10000000
01000000
00100000
00000000
10010000
00000000
,
00110000
00000000
00000000
00000000
00010000
00000000
10000000
00000000
00100000
00000000
00000000
00100000
00000000
00000000
00010000
00000000
,
00001000
00000000
00000010
00000000
00000001
00000000
00001000
00000000
00000001
00000000
00000000
00000000
00000100
00000000
00000000
00000010
,
00000000
00000000
00000000
00001000
00000100
00010000
00001000
00000000
,
00100000
00000000
00010000
00000000
10000000
00000000
00100000
00000000
01000000
00000000
00000000
01000000
00000000
00000000
01000000
00000000
,
00000000
00020000
00000000
00000000
00000000
00000000
00000000
00030000
,
00000000
10000000
01000000
00010000
,
00001000
00000000
00000000
00000010
00000000
00000000
00000001
00000000
00000100
00000000
00000010
00000000
00001000
00000000
00000001
00000000
,
00000010
00000001
00000100
00001000
,
00010000
00000000
00000000
00100000
00000000
00000000
10000000
00000000
01000000
00000000
00100000
00000000
00010000
00000000
10000000
00000000
,
00100000
10000000
00100000
00010000
,
00001000
00000000
00000000
00000100
00000000
00000000
00000001
00000000
00000010
00000000
00000100
00000000
00001000
00000000
00000001
00000000
,
00000100
00000001
00000010
00001000
,
00010000
00000000
00000000
01000000
00000000
00000000
10000000
00000000
00100000
00000000
01000000
00000000
00010000
00000000
10000000
00000000
,
00010000
00000000
00000000
00010000
00000000
00000000
00000000
00000000
10000000
00000000
00000000
10000000
00000000
00000000
00100000
00000000
,
00000000
00010000
00000000
00001000
00000000
00000100
00000000
00000001
,
00001000
00000000
00000000
00001000
00000000
00000000
00000000
00000000
00000001
00000000
00000000
00000001
00000000
00000000
00000010
00000000
,
00000000
00001000
00000000
00010000
00000000
01000000
00000000
10000000
,
00010000
00000000
00000000
00010000
00000000
00000000
00000000
00000000
10000000
00000000
00000000
10000000
00000000
00000000
01000000
00000000
,
00000000
00010000
00000000
00001000
00000000
00000010
00000000
00000001
,
00001000
00000000
00000000
00001000
00000000
00000000
00000000
00000000
00000001
00000000
00000000
00000001
00000000
00000000
00000100
00000000
,
00000000
00000000
00001000
00000000
00000000
00000000
00010000
00000000
00000000
00100000
00000000
10000000
00000000
00100000
00000000
01000000
,
00000000
00010000
00000000
00000000
00000000
00000000
00000000
00000000
;

//---------------dance-double - ----------------
#NOTES:
     dance-double:
     :
     Easy:
     5:
     0.197360,0.233715,0.051937,0.093486,0.000000,133.000000,128.000000,5.000000,9.000000,0.000000,0.000000,0.197360,0.233715,0.051937,0.093486,0.000000,133.000000,128.000000,5.000000,9.000000,0.000000,0.000000:
00000000
00000000
00000000
00000000
,
00000000
00000000
00000000
00000000
,
00000000
00000000
00000000
00000000
,
00000000
00000000
00000000
00000000
,
00000010
00000100
00000010
00000001
,
00001000
00001000
00000020
00000130
,
00000000
00000000
00002000
00013000
,
00000000
00200000
10300000
00000000
,
00100000
01000000
00100000
10000000
,
00010000
00010000
00200000
01300000
,
00000000
00000000
00020000
00031000
,
00000000
00000020
00000031
00000000
,
00002001
00000000
00000001
00000000
,
00000100
00003001
00001000
00001000
,
00000000
00000000
00010000
00010000
,
00000000
00000000
10000000
00010000
,
10020000
00000000
10000000
00000000
,
01000000
10030000
00010000
00010000
,
00000000
00000000
00001000
00001000
,
00000000
00000000
00000010
00000000
,
00001001
00000000
00000001
00000000
,
00000100
00001000
00010000
01000000
,
00100000
00000000
01000000
00000000
,
00100000
00100000
10000000
00010000
,
10010000
00000000
10000000
00000000
,
01000000
00010000
00001000
00000100
,
00000010
00000000
00000100
00000000
,
00000010
00000010
00000001
00002000
,
00003000
00000000
00000000
00000000
,
00000000
00000100
00010000
00001000
,
00100000
01000000
10000000
00010000
,
00000000
01000000
00001000
00010000
,
00000010
00000100
00000001
00001000
,
00000000
00000010
00010000
00001000
,
01000000
00100000
10000000
00010000
,
00000000
00100000
00001000
00010000
,
00000100
00000010
00000001
00001000
,
00000010
00000100
00000010
00000100
,
00000001
00001000
00000001
00001000
,
00000100
00010000
00000100
00010000
,
00001000
01000000
00001000
01000000
,
00010000
10000000
00010000
10000000
,
00100000
01000000
00100000
01000000
,
00001000
00010000
00001000
00010000
,
00000100
00000010
00000100
00000010
,
00000110
00000000
00000000
00000000
;

//---------------dance-double - ----------------
#NOTES:
     dance-double:
     :
     Challenge:
     14:
     0.629176,0.708936,0.280458,0.270071,0.654403,424.000000,397.000000,27.000000,26.000000,0.000000,0.000000,0.629176,0.708936,0.280458,0.270071,0.654403,424.000000,397.000000,27.000000,26.000000,0.000000,0.000000:
// measure 0
00000000
00000000
00000000
00000000
,  // measure 1
00000000
00000000
00000000
00000000
,  // measure 2
00000000
00000000
00000000
00000000
,  // measure 3
00000000
00000000
00000000
00000000
,  // measure 4
00000001
00000000
00001000
00000010
00001000
00000000
00000001
00000000
00000100
00000000
00001000
00010000
00001000
00000000
00000000
00000000
,  // measure 5
00100000
00000000
00010000
01000000
00010000
00000000
10000000
00000000
01000000
00000000
00010000
00001000
00010000
00000000
00100000
00000000
,  // measure 6
00010000
00000000
00000000
00010000
00001000
00000000
00000100
00000000
00000001
00000000
00000000
00000010
00000001
00000100
00000010
00000000
,  // measure 7
00001000
00000000
00010000
00001000
00010000
00000000
01000000
00000000
00100000
00000000
10000000
00010000
10000000
00000000
00100000
00000000
,  // measure 8
10000000
00000000
00010000
00100000
00010000
00000000
10000000
00000000
01000000
00000000
00010000
00001000
00010000
00000000
00000000
00000000
,  // measure 9
00000010
00000000
00001000
00000100
00001000
00000000
00000001
00000000
00000100
00000000
00001000
00010000
00001000
00000000
00000010
00000000
,  // measure 10
00001000
00000000
00000000
00001000
00010000
00000000
01000000
00000000
10000000
00000000
00000000
00100000
10000000
01000000
00100000
00000000
,  // measure 11
00010000
00000000
00001000
00010000
00001000
00000000
00000100
00000000
00000010
00000000
00000001
00001000
00000001
00000000
00000010
00000001
,  // measure 12
00000200
00000000
00000300
00000010
00001000
00000000
00010000
00000000
01000000
00000000
00000000
00100000
10000000
00000000
01000000
00100000
,  // measure 13
00000000
00010000
00000000
10000000
01000000
00000000
00010000
00000000
00001000
00000000
00000000
00000010
00000001
00000010
00000100
00000000
,  // measure 14
00001000
00000000
00000000
00000001
00000100
00000000
00001000
00000000
00010000
00000000
00000000
00100000
10000000
00100000
01000000
00000000
,  // measure 15
00010000
00000000
00000000
00000000
00000000
00000000
00000000
00000000
00000000
10000000
00000000
00000000
00100000
00000000
00000000
00000000
00000000
00000000
01000000
00000000
00000000
00000000
00000000
00000000
00001000
00000000
00000000
00000000
00100000
00000000
00010000
00000000
00000000
00000000
10000000
00000000
00100000
00000000
00000000
00000000
00000000
00000000
10000000
00000000
00000000
00000000
00000000
00000000
,  // measure 16
02000000
00000000
03000000
00100000
00010000
00000000
00001000
00000000
00000100
00000000
00000000
00000010
00000001
00000000
00000100
00000010
,  // measure 17
00000000
00001000
00000000
00000001
00000100
00000000
00001000
00000000
00010000
00000000
00100000
00000000
10000000
00100000
01000000
00000000
,  // measure 18
00010000
00000000
00000000
10000000
01000000
00000000
00010000
00000000
00001000
00000000
00000010
00000000
00000001
00000010
00000100
00000000
,  // measure 19
00001000
00000000
00000001
00000100
00000001
00000000
00001000
00000000
00010000
00000000
00000000
00100000
00010000
00000000
10000000
00000000
,  // measure 20
01000000
00000000
00000000
00000000
00010000
00000000
00000000
00000000
00001000
00000000
00000000
00000000
00000000
00000000
00000000
00000010
00000000
00000000
00000001
00000000
00000000
00000000
00000000
00000000
00000101
00000000
00000000
00000000
00000000
00000000
00000010
00000000
00000000
00001000
00000000
00000000
00000000
00000000
00000000
00001000
00000000
00000000
00000001
00000000
00000000
00001000
00000000
00000000
,  // measure 21
00000100
00010000
00001000
01000000
00010000
10000000
01000000
00010000
00001000
00000000
00000100
00000001
00001000
00000000
00000100
00000000
,  // measure 22
00000010
00000000
00000000
00000000
00001000
00000000
00000000
00000000
00010000
00000000
00000000
00000000
00000000
00000000
00000000
00100000
00000000
00000000
10000000
00000000
00000000
00000000
00000000
00000000
11000000
00000000
00000000
00000000
00000000
00000000
00100000
00000000
00000000
00010000
00000000
00000000
00000000
00000000
00000000
00010000
00000000
00000000
01000000
00000000
00000000
00000000
00000000
00000000
,  // measure 23
00100000
00000000
00000000
00000000
00010000
00000000
00000000
00000000
00001000
00000000
00000000
00000000
00000010
00000000
00000000
00000000
00000000
00000000
00000001
00000000
00000000
00000000
00000000
00000000
00000101
00000000
00000000
00000000
00000000
00000000
00000100
00000000
00000000
00000010
00000000
00000000
00001000
00000000
00000000
00000000
00000000
00000000
00000001
00000000
00000000
00000000
00000000
00000000
,  // measure 24
00000100
00000000
00000000
00000000
00001000
00000000
00000000
00000000
00010000
00000000
00000000
00000000
00000000
00000000
00000000
00100000
00000000
00000000
10000000
00000000
00000000
00000000
00000000
00000000
11000000
00000000
00000000
00000000
00000000
00000000
00100000
00000000
00000000
00010000
00000000
00000000
00000000
00000000
00000000
00010000
00000000
00000000
10000000
00000000
00000000
00010000
00000000
00000000
,  // measure 25
01000000
00001000
00010000
00000100
00001000
00000001
00000100
00001000
00010000
00000000
01000000
10000000
00010000
00000000
01000000
00100000
,  // measure 26
01000000
00000000
00000000
00000000
00001000
00000000
00000000
00000000
00010000
00000000
00000000
00000000
00000100
00000000
00000000
00000000
00000000
00000000
00000010
00000000
00000000
00000001
00000000
00000000
00000100
00000000
00000000
00000000
00000000
00000000
00001000
00000000
00000000
00010000
00000000
00000000
00001000
00000000
00000000
00100000
00000000
00000000
00010000
00000000
00000000
00000000
00000000
00000000
,  // measure 27
10000000
00000000
01000000
00000000
00010000
00000000
00001000
00000000
00000000
00000010
00000000
00000000
00000001
00000100
00000001
00000100
00000001
00000100
00000010
00001000
00000010
00001000
00000010
00001000
,  // measure 28
00000200
00000000
00000000
00000000
00000000
00000000
00000000
00000000
00000000
00000000
00000000
00000000
00000000
00000000
00000000
00000000
00000000
00000000
00000000
00000000
00000000
00000000
00000000
00000000
00000300
00000000
00000000
00000000
00010000
00000000
00001000
00010000
,  // measure 29
00001000
00010000
00100000
10000000
00020000
00000000
00030000
01000000
00020000
00000000
00030000
10000000
00020000
00000000
00030000
00100000
,  // measure 30
00020000
00000000
00000000
00000000
00000000
00000000
00031000
00000000
00000000
00000100
00000000
00000000
00000010
00000000
00000000
00000000
00000000
00000000
00000001
00000000
00000000
00000000
00000000
00000000
00000100
00000000
00000000
00000000
00000000
00000000
00001000
00000000
00000000
00000000
00000000
00000000
00010000
00000000
00000000
00000000
00000000
00000000
00000100
00000000
00000000
00000000
00000100
00000000
,  // measure 31
00000020
00000000
00000030
00000001
00002000
00000000
00003000
00000010
00002000
00000000
00003000
00000001
00002000
00000000
00003000
00000100
,  // measure 32
00002000
00000000
00013000
00100000
01000000
00000000
10000000
00000000
00100000
00000000
00010000
00000000
00001000
00000010
00000001
00000000
,  // measure 33
00000200
00000000
00000300
00000001
00002000
00000000
00003000
00000100
00002000
00000000
00003000
00000001
00002000
00000000
00003000
00000010
,  // measure 34
00002000
00000000
00000000
00000000
00000000
00000000
00013000
00000000
00000000
01000000
00000000
00000000
00100000
00000000
00000000
00000000
00000000
00000000
10000000
00000000
00000000
00000000
00000000
00000000
01000000
00000000
00000000
00000000
00000000
00000000
00010000
00000000
00000000
00000000
00000000
00000000
00001000
00000000
00000000
00000000
00000000
00000000
00100000
00000000
00000000
00000000
00100000
00000000
,  // measure 35
01000000
00000000
00000000
00000000
00010000
00000000
00000000
00000000
00001000
00000000
00000000
00000000
00000100
00000000
00000000
00000000
00000000
00000000
00000001
00000000
00000000
00000000
00000000
00000000
00000010
00000000
00000000
00000100
00000000
00000000
00001000
00000000
00000000
00000000
00000000
00000000
00000001
00000000
00000000
00000100
00000000
00000000
00000010
00000000
00000000
00000000
00000000
00000000
,  // measure 36
00001000
00000000
00010000
00100000
01000000
00000000
10000000
00000000
00100000
00000000
00010000
00000000
00001000
00000100
00000001
00000000
,  // measure 37
00000102
00000000
00000103
00001000
00000000
00000000
00010000
00000000
00021000
00000000
00031000
01000000
00000000
00000000
10100000
00000000
,  // measure 38
01000000
00110000
01000000
10100000
01000000
00110000
01000000
10000000
,  // measure 39
21000000
00000000
31000000
00010000
00000000
00000000
00001000
00000000
00012000
00000000
00013000
00000100
00000000
00000000
00000011
00000000
,  // measure 40
00000100
00001010
00000100
00000011
00000100
00001010
00000100
00000001
,  // measure 41
00000012
00000000
00000013
00001000
00000000
00000000
00010000
00000000
00021000
00000000
00031000
00100000
00000000
00000000
11000000
00000000
,  // measure 42
00100000
01010000
00100000
11000000
00100000
01010000
00100000
10000000
,  // measure 43
20100000
00000000
30100000
00010000
00000000
00000000
00001000
00000000
00012000
00000000
00013000
00000100
00000000
00000000
00000011
00000000
,  // measure 44
00000100
00000000
00001010
00000000
00000100
00000000
00000011
00000000
00000100
00000000
00001000
00000000
00000010
00010000
00001000
00010000
,  // measure 45
00000000
00100000
02000000
00000000
00000000
00000000
00000000
00000000
03000000
00000000
00000000
00000000
00000000
00000000
00000000
00000000
;
