#VERSION:0.81;
#TITLE:March of the Cards;
#SUBTITLE:;
#ARTIST:♪♪♪♪♪;
#TITLETRANSLIT:;
#SUBTITLETRANSLIT:;
#ARTISTTRANSLIT:;
#GENRE:;
#ORIGIN:;
#CREDIT:;
#BANNER:March of the Cards.png;
#BACKGROUND:;
#PREVIEWVID:;
#JACKET:March of the Cards-jacket.png;
#CDIMAGE:;
#DISCIMAGE:;
#LYRICSPATH:;
#CDTITLE:;
#MUSIC:March of the Cards.mp3;
#OFFSET:-0.028;
#SAMPLESTART:54.040;
#SAMPLELENGTH:15.000;
#SELECTABLE:YES;
#BPMS:0.000=123.581,
1.000=137.262,
2.000=133.859,
3.000=133.832,
4.000=134.178,
5.000=133.859,
6.000=129.344,
7.000=133.859,
8.000=139.007,
9.000=124.870,
10.000=133.859,
11.000=128.216,
12.000=130.499,
13.000=133.859,
14.000=129.338,
15.000=134.124,
16.000=133.893,
17.000=124.870,
18.000=134.131,
19.000=124.906,
20.000=138.338,
21.000=134.110,
22.000=129.111,
23.000=136.258,
24.000=132.148,
25.000=129.344,
26.000=125.130,
27.000=129.338,
28.000=138.694,
29.000=125.130,
30.000=133.859,
31.000=129.338,
32.000=124.876,
33.000=132.665,
34.000=130.718,
35.000=129.111,
36.000=132.658,
37.000=131.537,
38.000=127.273,
39.000=123.179,
40.000=138.985,
41.000=128.885,
42.000=129.344,
43.000=132.426,
44.000=125.089,
45.000=132.148,
46.000=129.344,
47.000=136.027,
48.000=128.684,
49.000=132.891,
50.000=125.427,
51.000=135.262,
52.000=131.296,
53.000=131.911,
54.000=139.263,
55.000=129.105,
56.000=143.135,
57.000=129.973,
58.000=139.000,
59.000=126.882,
60.000=131.550,
61.000=128.803,
62.000=128.847,
63.000=140.895,
64.000=128.590,
65.000=134.131,
66.000=125.124,
67.000=124.876,
68.000=128.235,
69.000=130.467,
70.000=129.357,
71.000=129.344,
72.000=133.853,
73.000=125.118,
74.000=133.866,
75.000=133.515,
76.000=129.649,
77.000=129.357,
78.000=129.338,
79.000=129.351,
80.000=138.694,
81.000=129.332,
82.000=125.124,
83.000=133.866,
84.000=133.859,
85.000=131.819,
86.000=130.984,
87.000=129.332,
88.000=134.199,
89.000=130.332,
90.000=128.260,
91.000=134.219,
92.000=133.907,
93.000=120.938,
94.000=133.853,
95.000=125.118,
96.000=137.326,
97.000=135.616,
98.000=131.296,
99.000=131.911,
100.000=129.079,
101.000=138.730,
102.000=119.973,
103.000=130.467,
104.000=133.859,
105.000=129.344,
106.000=134.117,
107.000=133.880,
108.000=128.847,
109.000=122.370,
110.000=138.817,
111.000=127.041,
112.000=135.325,
113.000=129.105,
114.000=134.144,
115.000=134.362,
116.000=127.506,
117.000=128.235,
118.000=131.885,
119.000=133.873,
120.000=133.562,
121.000=125.349,
122.000=134.131,
123.000=127.752,
124.000=134.383,
125.000=125.928,
126.000=133.907,
127.000=133.853,
128.000=129.344,
130.000=129.338,
131.000=133.859,
132.000=129.344,
133.000=129.332,
134.000=133.866,
135.000=129.338,
136.000=133.859,
137.000=129.351,
138.000=133.846,
139.000=128.235,
140.000=130.473,
141.000=133.853,
142.000=125.124,
143.000=133.846,
144.000=129.357,
145.000=131.211,
146.000=127.629,
147.000=139.095,
148.000=124.068;
#STOPS:;
#DELAYS:;
#WARPS:;
#TIMESIGNATURES:0.000=4=4;
#TICKCOUNTS:0.000=4;
#COMBOS:0.000=1;
#SPEEDS:0.000=1.000=0.000=0;
#SCROLLS:0.000=1.000;
#FAKES:;
#LABELS:0.000=Song Start;
#BGCHANGES:-0.500=March of the Cards.avi=1.000=0=0=0=StretchNoLoop====,
99999=-nosongbg-=1.000=0=0=0 // don't automatically add -songbackground-
;
#KEYSOUNDS:;
#ATTACKS:
;

//---------------dance-single - ----------------
#NOTEDATA:;
#CHARTNAME:;
#STEPSTYPE:dance-single;
#DESCRIPTION:;
#CHARTSTYLE:;
#DIFFICULTY:Challenge;
#METER:15;
#RADARVALUES:0.874,0.757,0.088,0.321,0.906,391.000,6.000,22.000,0.000,0.000,0.000,0.000,0.000,0.874,0.757,0.088,0.321,0.906,391.000,6.000,22.000,0.000,0.000,0.000,0.000,0.000;
#CREDIT:;
#NOTES:
// measure 0
1001
0000
0000
0000
1001
0000
0000
1000
0010
0000
0000
0000
0100
0000
0001
1000
,  // measure 1
0001
0000
0010
0000
0100
0000
1000
0000
0010
0000
0100
0000
0001
1000
0001
0000
,  // measure 2
1000
0001
1000
0001
0010
0100
0010
0100
1000
0010
1000
0010
0100
0001
0100
0001
,  // measure 3
1000
0000
0100
0000
0010
0000
0001
0000
1000
0000
0010
0000
0100
0001
0100
0000
,  // measure 4
0010
0000
1000
0001
1000
0000
0100
0000
0010
0000
0000
0000
0011
0000
0000
0000
,  // measure 5
0001
0010
0100
1000
0100
0000
0001
0000
1000
0000
0010
0000
0001
0000
1000
0000
,  // measure 6
0000
0001
1000
0001
1000
0000
0010
0000
0100
0000
1000
0000
0001
0000
0010
0000
,  // measure 7
1000
0010
0100
0010
0100
0000
0001
0000
1000
0000
0100
0000
1000
0010
1000
0001
,  // measure 8
0100
0000
0000
0010
1000
0000
0000
1000
0100
0010
0001
0100
0010
0000
0110
0000
,  // measure 9
0000
0000
0010
1000
0010
0000
1000
0000
0001
0000
0010
0000
0100
1000
0100
0001
,  // measure 10
0200
0310
0020
0031
0002
1003
2000
3010
,  // measure 11
0020
0130
0200
0301
0002
1003
2000
3100
,  // measure 12
0010
0000
0001
0100
0001
0000
1000
0001
1000
0001
1000
0000
0100
0000
0000
0000
,  // measure 13
0010
0001
0100
0010
1000
0000
0001
0000
2000
0000
0010
0000
0001
0000
3001
0000
,  // measure 14
0000
0001
1000
0100
0010
0000
0001
0000
0020
0000
0100
0000
1000
0000
0031
0000
,  // measure 15
0000
0010
0001
0100
0020
0000
1000
0000
0100
0000
0031
0000
0010
0100
0001
1000
,  // measure 16
0100
0000
0000
1000
0100
0000
0000
0010
0001
0000
0000
0100
0010
0000
0110
0000
,  // measure 17
0000
0010
1000
0010
1000
0000
0100
0000
1000
0000
0010
0000
0100
0001
0010
0001
,  // measure 18
0200
0310
0020
1030
2000
3001
0002
0013
,  // measure 19
0020
0130
0200
1300
2000
3010
0020
0130
,  // measure 20
0110
0000
0010
0100
0010
0000
0100
0010
,  // measure 21
0100
0001
0100
0001
1000
0001
1000
0001
1000
0010
1000
0010
1000
0001
1000
0001
,  // measure 22
0020
0000
0000
0130
0010
0000
0001
0000
0010
0000
0001
0000
0100
0010
1000
0001
,  // measure 23
0010
0000
0000
0000
0000
0000
0100
0000
0000
0000
0000
0000
0100
0000
0000
0000
0000
0000
0000
0000
0000
0000
0000
0000
0000
0000
0000
0000
0000
0000
1000
0000
0000
0100
0000
0000
1000
0000
0000
0000
0100
0000
0000
0000
0010
0000
0000
0000
,  // measure 24
0002
0000
0000
0103
0001
0000
1000
0000
0001
0000
0010
0000
0100
1000
0001
0100
,  // measure 25
0001
0000
0000
0100
0010
0100
0010
0000
0000
1000
0001
1000
0001
0000
0000
0000
0000
0010
0001
0000
0000
0000
0000
0000
,  // measure 26
0020
0000
0000
0130
0010
0000
0001
0000
0100
0000
0010
0000
1000
0010
0100
0001
,  // measure 27
0100
0000
0010
0000
0010
0000
0100
0000
0010
1000
0010
1000
0010
0000
0100
0001
,  // measure 28
0100
0000
0001
0010
0001
0000
0010
0100
0010
0000
0100
0000
1000
0100
0010
0001
,  // measure 29
1000
0010
1000
0010
0100
0001
0100
0001
0010
0001
0010
0001
0010
0100
0010
0100
,  // measure 30
1000
0000
0000
0100
0010
0000
0001
0000
0100
0000
0001
0000
0100
0010
0100
0010
,  // measure 31
1000
0000
0000
0001
0000
0000
0001
0000
0000
0000
0000
0000
1000
0001
1000
0001
1000
0001
1000
0001
1000
0001
1000
0001
,  // measure 32
1000
0000
0000
0100
0010
0000
0001
0000
0100
0000
0010
0000
1000
0001
0010
0100
,  // measure 33
0010
0100
0010
0100
0010
0100
0010
0100
0010
0100
0010
0100
1000
0000
0000
0100
0000
0000
0100
0000
0000
0000
0000
0000
,  // measure 34
0010
0000
0001
0000
0010
0000
0001
0000
0010
0000
0001
0000
0010
0000
0000
0000
0000
0000
0100
0000
0000
0000
0000
0000
1000
0000
0000
0000
0000
0000
0001
0000
0000
0000
0000
0000
0100
0000
0000
0010
0000
0000
1000
0000
0000
0010
0000
0000
,  // measure 35
1000
0010
1000
0010
1000
0010
1000
0000
0000
0001
0000
0000
1000
0000
0000
0100
0000
0000
0010
0000
0000
0100
0010
0100
,  // measure 36
0010
0000
0010
0100
0010
0000
0100
1000
0010
0000
0100
0000
0001
0010
0100
1000
,  // measure 37
0001
0000
0000
0000
;
