#TITLE:Look What You Made Me Do;
#SUBTITLE:;
#ARTIST:Taylor Swift;
#TITLETRANSLIT:;
#SUBTITLETRANSLIT:;
#ARTISTTRANSLIT:;
#GENRE:Pop;
#CREDIT:;
#BANNER:Look What You Made Me Do.png;
#BACKGROUND:Look What You Made Me Do-bg.png;
#LYRICSPATH:;
#CDTITLE:;
#MUSIC:Look What You Made Me Do.ogg;
#OFFSET:-0.000000;
#SAMPLESTART:45.000000;
#SAMPLELENGTH:15.000000;
#SELECTABLE:YES;
#DISPLAYBPM:128.000000;
#BPMS:0.000000=128.000000
,128.000000=125.999992
,129.000000=126.500000
,131.000000=126.999992
,132.000000=128.000000
,191.000000=129.500000
,192.000000=128.000000
;
#STOPS:
;
#BGCHANGES:;
#KEYSOUNDS:;
#ATTACKS:;

//---------------dance-single - ----------------
#NOTES:
     dance-single:
     :
     Beginner:
     2:
     0.062270,0.130292,0.018952,0.094758,0.000000,46.000000,44.000000,2.000000,10.000000,0.000000,0.000000,0.062270,0.130292,0.018952,0.094758,0.000000,46.000000,44.000000,2.000000,10.000000,0.000000,0.000000:
0000
0000
0000
0000
,
0000
0000
0000
0000
,
0000
0000
0000
0000
,
0000
0000
0000
0000
,
0000
0000
1000
0000
,
1000
0000
0000
0000
,
0000
0000
0001
0000
,
0001
0000
0000
1001
,
0000
0000
1000
0000
,
1000
0000
0000
0000
,
0000
0000
0001
0000
,
0001
0000
0000
0000
,
0000
0000
0010
0000
,
0010
0000
0000
0000
,
0000
0000
0100
0000
,
0100
0000
0000
0000
,
0020
0000
0000
0000
,
0000
0000
0000
0000
,
0032
0000
0000
0000
,
0000
0000
0000
0000
,
2003
0000
0000
0000
,
0000
0000
0000
0000
,
3200
0000
0000
0000
,
0000
0000
0000
0000
,
0310
0000
0000
0000
,
0010
0000
0000
0000
,
0100
0000
0000
0000
,
0100
0000
0000
0000
,
1000
0000
0000
0000
,
1000
0000
0000
0000
,
0001
0000
0000
0000
,
0001
0000
0000
0000
,
2000
0000
0000
0000
,
3000
0000
0000
0000
,
0002
0000
0000
0000
,
0003
0000
0000
0000
,
0200
0000
0000
0000
,
0300
0000
0000
0000
,
0020
0000
0000
0000
,
0030
0000
0000
0000
,
1000
0000
0000
0000
,
1000
0000
0000
0000
,
1000
0000
0000
0000
,
1000
0000
0000
0000
,
0001
0000
0000
0000
,
0001
0000
0000
0000
,
0002
0000
0000
0000
,
0003
0000
0000
1001
,
1000
0000
0000
0000
,
1000
0000
0000
0000
,
0100
0000
0000
0000
,
0100
0000
0000
0000
,
0010
0000
0000
0000
,
0010
0000
0000
0000
,
0002
0000
0000
0000
,
0003
0000
0000
0000
;

//---------------dance-single - ----------------
#NOTES:
     dance-single:
     :
     Easy:
     5:
     0.220651,0.265322,0.066331,0.113710,0.000000,163.000000,156.000000,7.000000,12.000000,0.000000,0.000000,0.220651,0.265322,0.066331,0.113710,0.000000,163.000000,156.000000,7.000000,12.000000,0.000000,0.000000:
// measure 0
0000
0000
0000
0000
,  // measure 1
0000
0000
0000
0000
,  // measure 2
0000
0000
0000
0000
,  // measure 3
0000
0000
0000
0000
,  // measure 4
0000
0000
1000
0000
,  // measure 5
0002
0013
0001
1000
,  // measure 6
0010
0000
1000
0000
,  // measure 7
0001
0010
0100
1100
,  // measure 8
0000
1000
0000
0001
,  // measure 9
0000
1000
0000
0001
,  // measure 10
0000
0010
0000
0100
,  // measure 11
0000
0010
0000
0100
,  // measure 12
0000
1000
0100
1000
,  // measure 13
0002
0103
0001
1000
,  // measure 14
0100
0010
0100
0010
,  // measure 15
0001
1000
0001
1001
,  // measure 16
1000
0000
1000
0000
,  // measure 17
0001
0000
0001
0000
,  // measure 18
0100
0000
0100
0000
,  // measure 19
0010
0000
0010
0000
,  // measure 20
1000
0000
0010
0000
,  // measure 21
0100
0000
0001
1000
,  // measure 22
2002
0000
0000
3003
,  // measure 23
1000
0001
0100
0110
,  // measure 24
0010
0000
1000
0010
,  // measure 25
1000
0000
0010
1000
,  // measure 26
0010
0000
1000
0001
,  // measure 27
1000
0000
0001
0020
,  // measure 28
0130
0000
0010
0001
,  // measure 29
0010
0000
0001
0010
,  // measure 30
0001
0000
1000
0001
,  // measure 31
1000
0010
0100
0001
,  // measure 32
0010
0010
0100
0100
,  // measure 33
1000
0001
1000
0000
,  // measure 34
0000
0010
0100
0001
,  // measure 35
0010
0010
0100
1000
,  // measure 36
0001
0001
1000
1000
,  // measure 37
0100
0010
0100
0000
,  // measure 38
0000
1000
0100
0010
,  // measure 39
0001
0001
0101
1010
,  // measure 40
2000
0000
0001
3001
,  // measure 41
0002
0000
0100
0103
,  // measure 42
0200
0000
0010
0310
,  // measure 43
0020
1000
1000
1030
,  // measure 44
2000
0000
0100
3100
,  // measure 45
0200
0000
0010
0310
,  // measure 46
0020
0000
0001
0001
,  // measure 47
0031
0000
0000
0110
,  // measure 48
0100
0000
1000
0001
,  // measure 49
0100
0000
0010
1000
,  // measure 50
0001
0000
0010
0001
,  // measure 51
1000
0100
0010
0001
,  // measure 52
0100
0000
0010
0100
,  // measure 53
0001
0000
0010
0100
,  // measure 54
1000
0000
0100
0010
,  // measure 55
0001
1000
0010
0100
,  // measure 56
0001
0000
0000
0000
;

//---------------dance-single - ----------------
#NOTES:
     dance-single:
     :
     Medium:
     9:
     0.380386,0.397984,0.142137,0.037903,0.000000,281.000000,266.000000,15.000000,4.000000,0.000000,0.000000,0.380386,0.397984,0.142137,0.037903,0.000000,281.000000,266.000000,15.000000,4.000000,0.000000,0.000000:
0000
0000
0000
0000
,
0000
0000
0000
0000
,
0000
0000
0000
0000
,
0000
0000
0000
0000
,
0000
0000
1000
0000
,
0001
0100
0010
1000
,
0001
0000
0000
0010
0001
0000
0000
0010
,
0100
1000
0001
1001
,
1000
1010
0010
1010
,
0010
0110
0100
0001
,
1000
1100
0100
1100
,
0100
0000
0010
0000
0001
1000
1000
0000
,
0010
1010
0010
0110
,
0100
0101
0001
1000
,
0100
0000
1100
0100
0100
0000
0110
0010
,
0001
1000
0001
1001
,
0000
1000
0010
0000
1000
0001
1000
0000
,
0001
0010
0001
0000
0010
0100
0010
0000
,
0000
0100
1000
0000
1000
0001
1000
0000
,
0001
0100
0001
0000
0100
0010
0100
0000
,
0000
0010
1000
0000
1000
0001
1000
0000
,
0001
0010
0001
0000
0010
0100
0010
0000
,
0200
0000
0000
1300
0100
0000
0000
1000
,
0001
0100
0010
1010
,
0010
0000
0000
0100
0001
1000
0001
0000
,
0010
0000
0000
0100
1000
0001
1000
0000
,
0010
0000
0000
0100
0001
1000
0001
0000
,
0010
0010
0001
1000
0010
0200
0301
0200
,
0310
0000
0000
0100
0100
0001
1000
0001
,
0010
0000
0000
0100
0100
1000
0001
1000
,
0010
0000
0000
0010
0010
1000
0100
0010
,
0001
0010
0001
0000
1000
0010
0100
0001
,
1000
1000
0001
0000
1000
1000
0001
0000
,
0010
0010
0100
0000
1000
0000
0000
0000
,
0000
0010
1000
0010
1000
0000
0001
0000
,
0010
0010
0100
0010
0100
0000
1000
0000
,
0010
0010
1000
0000
0010
0010
1000
0000
,
0001
1000
0001
0000
0010
0000
0000
0000
,
0000
0100
0010
0100
0010
0000
0001
0000
,
1000
1000
0001
1000
0010
0000
0100
0000
,
0001
0000
0000
0100
0001
0100
0001
0000
,
1000
0000
0000
0100
1000
0100
1000
0000
,
0010
0000
0000
0100
0010
0100
0010
0000
,
0010
0100
0001
0000
0001
0100
0010
0000
,
1000
0000
0000
0100
0010
0100
0010
0000
,
0001
0000
0000
0100
0010
0100
0010
0000
,
1000
0000
0000
0001
0010
0001
0010
0200
,
0300
0000
0000
0110
,
0010
0000
0000
0001
0010
0001
0100
0010
,
0100
0000
0000
0010
1000
0010
0100
0010
,
0100
0000
0000
0001
1000
0001
0100
0010
,
0100
0001
1000
0000
0100
0010
0100
0000
,
0010
0000
0000
0001
0010
0001
0100
0010
,
0100
0000
0000
0010
1000
0010
1000
0100
,
1000
0000
0000
0100
0010
0100
1000
0010
,
1000
0001
0010
0000
0100
0010
0100
0000
,
0110
0000
0000
0000
;

//---------------dance-single - ----------------
#NOTES:
     dance-single:
     :
     Hard:
     12:
     0.555011,0.610242,0.274798,0.170564,0.113710,410.000000,381.000000,29.000000,18.000000,0.000000,0.000000,0.555011,0.610242,0.274798,0.170564,0.113710,410.000000,381.000000,29.000000,18.000000,0.000000,0.000000:
0000
0000
0000
0000
,
0000
0000
0000
0000
,
0000
0000
0000
0000
,
0000
0000
0000
0000
,
0000
0000
1000
0001
0100
0001
1000
0000
,
0100
0000
0010
0100
1000
0100
0010
0000
,
0001
0000
0000
0000
0100
0000
0001
0100
0010
0000
1000
0000
0001
0000
0010
0001
,
0100
0010
1000
1001
,
0001
0000
0011
0010
0100
1000
1001
0000
,
1000
0000
1010
0010
0100
0001
1001
0000
,
0001
0000
0101
0100
0010
1000
1001
0000
,
1000
0000
1100
0100
0010
0011
1001
0000
,
1000
0000
1010
0010
0001
0010
1010
0000
,
1000
0000
1100
0100
0001
0100
1100
0000
,
0100
0000
0000
0000
0110
0000
0010
0001
0100
0000
0010
0000
0110
0000
0010
1000
,
0001
0000
0010
0000
0100
1100
1001
0000
,
1000
0001
0001
0100
0001
1000
1000
0100
,
0010
0001
0001
0010
0001
0100
0110
0010
,
1000
0100
0100
0010
0100
1000
1000
0001
,
0001
0100
0010
1000
1001
0001
0010
0100
,
0010
0001
0001
1000
0010
0100
0100
0001
,
0001
1000
0100
1000
0200
0010
0001
1300
,
0200
0000
0000
0000
0300
0010
0100
0010
0001
0000
0000
0000
0001
0000
1000
0001
,
1000
0010
1000
0010
0100
0001
0100
0001
1000
0100
1000
0100
0010
0000
0000
0000
,
0100
0000
1100
1000
0001
0100
1000
0100
,
0001
0000
0101
0001
1000
0100
0001
0100
,
1000
0000
1010
1000
0001
0010
1000
0010
,
0010
0000
0000
0100
0000
0000
1000
0000
0000
0001
0000
0000
1000
0010
1000
0020
0000
0000
0230
0000
0000
0302
0000
0000
,
1003
0000
1001
0001
0100
1000
0100
0001
,
1000
0000
1100
0100
0001
0100
1000
0010
,
0001
0000
0000
0001
0010
0000
0100
0000
0001
0000
0010
0001
0010
0000
0100
0000
,
1000
1000
0001
0001
1000
0010
0100
0001
,
0010
0010
0100
0100
0010
0010
0100
0100
,
0010
0010
0002
0000
2003
0000
3020
0000
,
0130
0000
0010
0000
0010
0000
1000
0000
0001
0020
0000
0000
0130
0000
0000
0000
,
0010
0002
0100
1003
0002
0010
1000
0103
,
0001
0001
1000
1000
0001
0001
1000
1000
,
0001
0001
0200
0000
0320
0000
2030
0000
,
3100
1000
0010
0100
0020
0000
0230
0000
,
0301
0001
0100
0001
1001
0000
1001
0000
,
1000
0000
0100
1000
0010
0100
0010
0100
,
0001
0000
0010
0001
0010
0100
0010
0100
,
1000
0000
0010
1000
0001
0010
1000
0010
,
0010
0001
0100
0010
1000
0001
0010
0001
,
1000
0000
0100
1000
0010
0100
0010
0100
,
0001
0000
0010
0001
0010
0100
0010
0100
,
1000
0000
0001
1000
0010
0100
0010
0200
,
0302
0003
0000
0000
0000
0000
1001
0000
,
1000
0100
0001
0100
1000
0001
0100
1000
,
0100
0000
0010
0000
1000
0000
0001
0000
0010
0000
0100
1000
0100
0000
0100
0000
,
0010
0000
0001
0000
1000
0000
0001
0000
0100
0000
1000
0100
0001
0000
1000
0000
,
0001
0000
1000
0001
0010
0000
0010
0000
0100
0000
1000
0000
0001
0000
0100
0000
,
0001
0010
1000
0010
0100
0100
1000
0100
,
0001
0000
0100
0000
0010
0000
0001
0000
0100
0000
1000
0100
1000
0000
0100
0000
,
0010
0000
1000
0010
1000
0000
0001
0000
0010
0000
0100
0010
0100
0000
1000
0000
,
1000
0001
0100
0100
0001
0010
0100
1000
,
1001
0000
0000
0000
;
