#TITLE:Just A Girl;
#SUBTITLE:;
#ARTIST:No Doubt;
#TITLETRANSLIT:;
#SUBTITLETRANSLIT:;
#ARTISTTRANSLIT:;
#GENRE:;
#CREDIT:N. Muriel;
#MENUCOLOR:;
#METERTYPE:DDR X;
#BANNER:Just A Girl.png;
#BACKGROUND:Just A Girl-bg.png;
#LYRICSPATH:;
#CDTITLE:;
#MUSIC:Just A Girl.mp3;
#OFFSET:-0.060;
#SAMPLESTART:30.600;
#SAMPLELENGTH:15.000;
#SELECTABLE:YES;
#LISTSORT:;
#DISPLAYBPM:216.000;
#BPMS:0.000=215.960;
#STOPS:383.875=0.002 383.877=0.002 383.879=0.002 383.881=0.002 383.883=0.002 383.885=0.002 383.887=0.002 383.889=0.002 383.891=0.002 383.893=0.002 383.895=0.002 383.897=0.002 383.899=0.002 383.901=0.002 383.903=0.002 383.905=0.002 383.907=0.002 383.909=0.002 383.919=0.002
,383.938=0.002
;
#BGCHANGES:0.000=Just A Girl.avi=1.000=0=0=1,
99999=-nosongbg-=1.000=0=0=0 // don't automatically add -songbackground-
;
#ATTACKS:;

//---------------dance-single - ----------------
#NOTES:
     dance-single:
     :
     Hard:
     13:
     0.532,0.753,0.254,0.164,0.037: // measure 1
1000
0000
0100
0000
0010
0100
0010
0000
,  // measure 2
0010
0100
0010
0000
0110
0000
0010
0100
,  // measure 3
0001
0000
0100
0000
0010
0100
0010
0000
,  // measure 4
0010
0100
0010
0000
2002
0000
3003
0000
,  // measure 5
1100
0000
1000
0001
,  // measure 6
0100
0001
0000
0000
0010
0000
0000
0100
,  // measure 7
0000
0002
0000
0000
,  // measure 8
0000
0000
0013
0100
,  // measure 9
0101
0000
0000
1000
,  // measure 10
0100
0000
0001
0000
1000
0000
0000
0010
,  // measure 11
0000
0002
0000
0000
,  // measure 12
0000
0000
1003
1000
,  // measure 13
0100
0010
0001
1000
,  // measure 14
0100
0010
0001
1000
,  // measure 15
0000
0011
0000
0000
,  // measure 16
0000
0000
0000
1001
,  // measure 17
1000
0100
1000
0010
,  // measure 18
0001
0100
0001
0010
,  // measure 19
0000
0200
0000
0300
,  // measure 20
1000
0001
1000
0001
1000
0001
1000
0001
,  // measure 21
0100
0000
1000
0000
1000
0000
0100
0001
,  // measure 22
0000
0000
0000
0010
,  // measure 23
1000
0010
0000
0100
0000
0000
0100
0000
,  // measure 24
0000
0000
0020
0000
,  // measure 25
0130
0000
1000
0010
,  // measure 26
0100
0000
0000
0101
0000
0000
0011
0000
,  // measure 27
0000
2002
0000
3003
,  // measure 28
0010
0100
0010
0100
0010
0100
0010
0100
,  // measure 29
1000
0000
0100
0000
0010
0000
0001
1000
,  // measure 30
0000
0000
0000
0010
,  // measure 31
0100
0010
0100
0000
0001
0000
0001
1000
,  // measure 32
0000
0000
0000
0000
1100
0000
0000
1001
,  // measure 33
0000
0101
0001
1001
,  // measure 34
1000
0000
0000
1000
0000
0000
1000
0000
,  // measure 35
0001
0002
0000
0000
,  // measure 36
1003
0000
0000
1000
0000
0000
1000
0001
1000
0001
1000
0001
,  // measure 37
1000
0000
0010
0000
0100
0001
0100
0000
,  // measure 38
0001
0100
0001
0010
0100
1000
0010
0000
,  // measure 39
1000
0100
1000
0010
0100
0001
0100
0001
,  // measure 40
0010
0100
1000
0001
0100
0001
0100
0000
,  // measure 41
0001
0000
0100
0000
0010
0100
0010
0000
,  // measure 42
0010
0100
0010
0000
0010
1000
0001
0100
,  // measure 43
0010
0000
1000
0000
0100
0010
0100
0000
,  // measure 44
0100
0010
0100
0000
0100
0010
0100
0000
,  // measure 45
0001
1001
0000
0000
,  // measure 46
1000
1000
1001
0001
,  // measure 47
0000
0110
0000
0000
,  // measure 48
0000
2000
0001
3010
,  // measure 49
0011
0011
0000
1000
,  // measure 50
0100
0000
1000
0000
0001
0000
0000
0100
,  // measure 51
0000
0010
0000
0000
,  // measure 52
0000
1000
0010
0000
0010
0000
0010
0000
,  // measure 53
0010
1000
0000
0001
0000
0000
0000
0000
,  // measure 54
0000
1000
0001
1000
,  // measure 55
0000
0101
0000
0000
,  // measure 56
0000
0001
0010
0000
0010
0000
0010
0000
,  // measure 57
0010
0001
0000
1000
0000
0000
0000
0000
,  // measure 58
0000
0000
0010
0200
,  // measure 59
0000
0020
0000
0330
,  // measure 60
1000
0010
0100
0001
0010
0100
1000
0001
,  // measure 61
0100
0000
0001
0000
0010
0000
0100
0001
,  // measure 62
0000
0000
0000
0000
0000
1000
0100
0000
,  // measure 63
0010
0000
0100
1000
0000
0000
1000
0000
,  // measure 64
0000
0000
0000
0000
0000
0000
0000
0000
0000
0000
0000
0000
0001
0000
0000
0000
0001
0000
0000
0000
0000
1001
0000
0000
,  // measure 65
0000
1000
0010
0001
,  // measure 66
0100
0000
0000
0100
0000
0000
0100
0000
,  // measure 67
0000
0010
0000
0000
,  // measure 68
0001
0010
0100
1000
0010
0100
0001
1000
,  // measure 69
0001
0000
1000
0000
0100
0000
1000
0010
,  // measure 70
0000
0000
0101
0001
,  // measure 71
1100
1000
1010
0010
,  // measure 72
0000
0000
0000
0000
0100
0001
0000
1000
,  // measure 73
0000
0000
0010
0000
0100
1000
0001
0000
,  // measure 74
1000
0100
1000
0100
1000
0000
0001
0000
,  // measure 75
0000
0102
1000
0103
,  // measure 76
1000
0001
1000
0001
0010
0100
0001
0100
,  // measure 77
0001
0000
0010
0000
0100
0000
1000
0100
,  // measure 78
0000
0000
1010
0010
,  // measure 79
0101
0001
1100
1000
,  // measure 80
0000
0000
0010
0010
,  // measure 81
0100
0000
0000
1000
0000
0000
0010
0000
,  // measure 82
0001
0000
0000
0100
0000
0000
2000
0000
,  // measure 83
0001
0100
0010
3001
,  // measure 84
0001
0000
0000
0001
0000
0000
0001
1000
0001
1000
0001
1000
,  // measure 85
0001
0010
0001
0010
0001
0100
0010
0100
,  // measure 86
0001
0100
0010
0100
1000
0100
0001
0100
,  // measure 87
1000
0100
0001
0100
1000
0010
0100
0001
,  // measure 88
0010
0100
1000
0001
0100
0010
0100
0010
,  // measure 89
1000
0100
0001
0100
,  // measure 90
1000
0010
0001
0020
,  // measure 91
0000
0000
0130
0020
,  // measure 92
0000
0130
0000
0000
,  // measure 93
0000
0100
1000
0100
,  // measure 94
0001
0010
1000
0020
,  // measure 95
0000
0000
0130
0020
,  // measure 96
0000
1030
0101
1001
,  // measure 97
1100
1000
0100
1000
0010
0100
0010
0100
,  // measure 98
0001
0100
0010
1000
0100
1000
0100
0010
,  // measure 99
0100
1000
0100
0001
0100
1000
0100
0010
,  // measure 100
0100
0001
0100
1000
0001
0100
0001
0100
,  // measure 101
0001
2002
0000
0000
,  // measure 102
0000
0000
0000
0000
,  // measure 103
3003
0000
0000
0000
;
