#TITLE:Hey Baby;
#SUBTITLE:;
#ARTIST:No Doubt;
#TITLETRANSLIT:;
#SUBTITLETRANSLIT:;
#ARTISTTRANSLIT:;
#GENRE:;
#CREDIT:N. Muriel;
#MENUCOLOR:;
#METERTYPE:DDR X;
#BANNER:Hey Baby.png;
#BACKGROUND:Hey Baby-bg.png;
#LYRICSPATH:;
#CDTITLE:;
#MUSIC:Hey Baby.mp3;
#OFFSET:-2.880;
#SAMPLESTART:46.440;
#SAMPLELENGTH:15.000;
#SELECTABLE:YES;
#LISTSORT:;
#DISPLAYBPM:187.000;
#BPMS:0.000=187.280;
#STOPS:;
#BGCHANGES:-10.000=Hey Baby.avi=1.011=0=0=1,
99999=-nosongbg-=1.000=0=0=0 // don't automatically add -songbackground-
;
#ATTACKS:;

//---------------dance-single - ----------------
#NOTES:
     dance-single:
     :
     Hard:
     13:
     0.549,0.644,0.664,0.302,0.009: // measure 1
1000
0100
0010
1000
,  // measure 2
0100
0010
0022
0033
,  // measure 3
1001
0000
0000
1001
0000
0000
0000
0000
,  // measure 4
1100
0000
0000
1100
0000
0000
0000
0000
,  // measure 5
0001
0100
0010
0001
,  // measure 6
0100
0010
2020
3030
,  // measure 7
0000
0001
0100
0001
,  // measure 8
2200
0000
3300
1100
0000
0000
0000
0000
,  // measure 9
0010
0000
0100
0000
0010
0100
0001
0000
,  // measure 10
0001
0000
0100
0010
0000
0000
1000
0001
,  // measure 11
1000
0000
0010
0100
1000
0000
0001
0000
,  // measure 12
0001
0000
0100
0010
0001
0000
0000
0000
,  // measure 13
1000
0010
1000
0010
0000
0100
0010
0000
,  // measure 14
0100
0001
0100
0001
0000
0000
0010
0100
,  // measure 15
0001
0000
0100
0001
0000
0000
0100
0001
,  // measure 16
0010
0000
0001
0010
0000
0000
0000
0000
,  // measure 17
0100
0010
0000
0110
0000
0000
0000
0000
,  // measure 18
1000
0000
0000
1001
0000
0000
0000
0000
,  // measure 19
0001
0000
0000
1001
0000
0000
0000
0000
,  // measure 20
0100
0000
0000
0110
0000
0000
0000
0000
,  // measure 21
1000
0100
0010
0100
0001
0100
0001
0000
,  // measure 22
0001
0000
0001
0100
0000
0000
0100
0010
,  // measure 23
0001
0000
0001
1000
0000
0000
0001
1000
,  // measure 24
0010
0000
0010
0100
0000
0000
0000
0000
,  // measure 25
1000
0000
0010
0000
0100
0001
0100
0000
,  // measure 26
0001
0000
0010
0000
0101
0000
0000
1000
,  // measure 27
1000
0100
0010
0001
0010
0000
0001
1000
,  // measure 28
0100
0000
0100
0000
0101
0000
0000
0001
,  // measure 29
0010
0010
0100
1000
0100
1000
0100
1000
,  // measure 30
0010
0100
0001
1000
,  // measure 31
1001
0000
0000
1001
0000
0000
0011
0000
,  // measure 32
2200
3300
2002
3003
,  // measure 33
1000
0000
0000
0010
0000
0000
0000
0000
,  // measure 34
0001
0000
0100
0100
0100
0000
1000
0000
,  // measure 35
1010
0100
0101
0011
,  // measure 36
0100
1100
2002
3003
,  // measure 37
0110
0000
0000
0110
0000
0000
0000
0000
,  // measure 38
1001
0000
0000
1001
0000
0000
0000
0000
,  // measure 39
0011
0100
1100
1010
,  // measure 40
0100
0101
2002
3003
,  // measure 41
0000
1000
0100
1000
,  // measure 42
0202
0000
0303
0101
0000
0000
0000
0000
,  // measure 43
1001
0001
0011
1001
,  // measure 44
1000
1010
0220
0330
,  // measure 45
1001
0000
0000
1001
0000
0000
0000
0000
,  // measure 46
0110
0000
0000
0110
0000
0000
0000
0000
,  // measure 47
1001
1000
1100
1001
,  // measure 48
0001
0000
0101
0000
0110
0000
0010
0100
,  // measure 49
0010
0000
0001
0100
0001
0000
1000
0100
,  // measure 50
1000
0000
0000
0000
0010
0100
0001
0000
,  // measure 51
0001
0000
0000
0001
0000
0000
0000
0000
,  // measure 52
0001
0000
0000
0000
0000
0000
0000
0000
0001
0000
1000
0100
1000
0100
1000
0000
,  // measure 53
0001
0000
0000
0001
0000
0000
0010
0100
,  // measure 54
2000
0000
0000
0000
0000
0000
0000
3000
,  // measure 55
0010
0000
0100
0001
0000
0000
0010
0000
,  // measure 56
0100
0000
1000
0010
0000
0000
0000
0000
,  // measure 57
1001
0000
0001
0100
0000
0000
0010
0000
,  // measure 58
0001
0000
1000
0100
0000
0000
0000
0100
,  // measure 59
0001
0010
0100
0000
0001
0000
0101
0000
,  // measure 60
1000
0001
1000
0001
0000
0000
0010
1000
,  // measure 61
0010
0000
1000
0001
0000
0000
0010
0001
,  // measure 62
0010
0000
0001
1000
0000
0000
0000
0001
,  // measure 63
0100
0001
0100
0001
0100
0000
1100
0000
,  // measure 64
1100
0010
1010
0000
,  // measure 65
0100
1000
0100
1000
0200
0000
0301
0000
,  // measure 66
0020
0000
2030
0000
3200
0000
0300
0001
,  // measure 67
0100
0001
0100
0000
0001
1000
0001
0000
,  // measure 68
1000
0000
0010
0000
0100
0000
0100
0100
,  // measure 69
0020
0000
0030
2000
0000
3000
0010
0000
,  // measure 70
0002
0000
2000
3003
,  // measure 71
0100
0000
0000
0100
0000
0000
0000
0000
,  // measure 72
0001
0000
0010
0010
0010
0000
1000
0000
,  // measure 73
0101
0010
0011
1100
,  // measure 74
0010
1010
2002
3003
,  // measure 75
0100
0000
0000
0001
0000
0000
0000
0000
,  // measure 76
0010
0000
0000
0001
0000
0000
0000
0000
,  // measure 77
1010
0100
1100
0011
,  // measure 78
0100
0101
2002
3003
,  // measure 79
0000
1000
0100
1000
,  // measure 80
0202
0000
0303
0101
0000
0000
1000
0000
,  // measure 81
1100
0101
1100
1010
,  // measure 82
0011
1010
0220
0330
,  // measure 83
1000
0000
0000
0100
0000
0000
0000
0000
,  // measure 84
0010
0000
0000
0100
0000
0000
0000
0000
,  // measure 85
1100
0100
0001
0011
,  // measure 86
0010
0000
1000
0000
0101
0000
1000
0100
,  // measure 87
0001
0000
0001
0010
1000
0000
1000
0100
,  // measure 88
0001
0000
0000
0000
1000
0001
1001
0000
;
