#VERSION:0.83;
#TITLE:HUMBLE.;
#SUBTITLE:;
#ARTIST:Kendrick Lamar;
#TITLETRANSLIT:;
#SUBTITLETRANSLIT:;
#ARTISTTRANSLIT:;
#GENRE:;
#ORIGIN:;
#CREDIT:;
#BANNER:HUMBLE.png;
#BACKGROUND:HUMBLE-bg.png;
#PREVIEWVID:;
#JACKET:HUMBLE-jacket.png;
#CDIMAGE:;
#DISCIMAGE:;
#LYRICSPATH:;
#CDTITLE:;
#MUSIC:HUMBLE.ogg;
#OFFSET:0.000000;
#SAMPLESTART:47.988998;
#SAMPLELENGTH:15.000000;
#SELECTABLE:YES;
#BPMS:0.000=149.983;
#STOPS:;
#DELAYS:;
#WARPS:;
#TIMESIGNATURES:0.000=4=4;
#TICKCOUNTS:0.000=4;
#COMBOS:0.000=1;
#SPEEDS:0.000=1.000=0.000=0;
#SCROLLS:0.000=1.000;
#FAKES:;
#LABELS:0.000=Song Start;
#BGCHANGES:;
#KEYSOUNDS:;
#ATTACKS:
;

//---------------dance-single - ----------------
#NOTEDATA:;
#CHARTNAME:;
#STEPSTYPE:dance-single;
#DESCRIPTION:;
#CHARTSTYLE:;
#DIFFICULTY:Beginner;
#METER:2;
#RADARVALUES:0.082392,0.121902,0.034954,0.017477,0.000000,66.000000,62.000000,4.000000,2.000000,0.000000,0.000000,0.000000,0.000000,0.000000,0.082392,0.121902,0.034954,0.017477,0.000000,66.000000,62.000000,4.000000,2.000000,0.000000,0.000000,0.000000,0.000000,0.000000;
#CREDIT:RIME;
#NOTES:
0000
0000
0000
0000
,
0000
0000
0000
0000
,
0000
0000
0000
0000
,
0000
0000
0000
0000
,
1000
0000
0000
0000
,
1000
0000
0000
0000
,
0001
0000
0000
0000
,
0001
0000
0000
0000
,
0010
0000
0000
0000
,
0010
0000
0000
0000
,
0100
0000
0000
0000
,
0100
0000
0000
0000
,
0010
0000
0000
0000
,
0010
0000
0000
0000
,
0100
0000
0000
0000
,
0100
0000
0000
0000
,
1000
0000
0000
0000
,
1000
0000
0000
0000
,
0001
0000
0000
0000
,
0001
0000
0000
0000
,
1000
0000
0000
0000
,
1000
0000
0000
0000
,
0001
0000
0000
0000
,
0001
0000
0000
0000
,
1001
0000
0000
0000
,
0000
0000
0000
0000
,
0001
0000
0000
0000
,
0001
0000
0000
0000
,
0010
0000
0000
0000
,
0010
0000
0000
0000
,
0100
0000
0000
0000
,
0100
0000
0000
0000
,
1000
0000
0000
0000
,
1000
0000
0000
0000
,
0100
0000
0000
0000
,
0100
0000
0000
0000
,
1000
0000
0000
0000
,
1000
0000
0000
0000
,
0001
0000
0000
0000
,
0001
0000
0000
0000
,
0010
0000
0000
0000
,
0010
0000
0000
0000
,
0110
0000
0000
0000
,
0000
0000
0000
0000
,
0100
0000
0000
0000
,
0100
0000
0000
0000
,
1000
0000
0000
0000
,
1000
0000
0000
0000
,
0001
0000
0000
0000
,
0001
0000
0000
0000
,
0010
0000
0000
0000
,
0010
0000
0000
0000
,
0100
0000
0000
0000
,
0100
0000
0000
0000
,
1000
0000
0000
0000
,
1000
0000
0000
0000
,
0001
0000
0000
0000
,
0001
0000
0000
0000
,
1001
0000
0000
0000
,
0000
0000
0000
0000
,
1000
0000
0000
0000
,
1000
0000
0000
0000
,
0010
0000
0000
0000
,
0010
0000
0000
0000
,
0100
0000
0000
0000
,
0100
0000
0000
0000
,
0001
0000
0000
0000
,
0001
0000
0000
0000
,
2002
0000
0000
0000
,
0000
0000
0000
3003
;

//---------------dance-single - ----------------
#NOTEDATA:;
#CHARTNAME:;
#STEPSTYPE:dance-single;
#DESCRIPTION:;
#CHARTSTYLE:;
#DIFFICULTY:Easy;
#METER:7;
#RADARVALUES:0.289619,0.365707,0.148555,0.078647,0.000000,232.000000,215.000000,17.000000,9.000000,0.000000,0.000000,0.000000,0.000000,0.000000,0.289619,0.365707,0.148555,0.078647,0.000000,232.000000,215.000000,17.000000,9.000000,0.000000,0.000000,0.000000,0.000000,0.000000;
#CREDIT:RIME;
#NOTES:
0000
0000
0000
0000
,
0000
0000
0000
0000
,
0000
0000
0000
0000
,
0000
0000
0000
0000
,
1000
0000
0001
0010
,
0100
0000
0010
0010
,
0100
0000
0010
0100
,
1000
0000
0100
0100
,
1000
0000
0010
1000
,
0001
0000
1000
1000
,
0001
0000
0100
0001
,
0010
0000
0001
0001
,
0010
0000
0100
0010
,
0001
0000
0010
0010
,
0001
0000
0010
0001
,
0100
0000
0001
0001
,
0100
0000
0010
1000
,
0001
0010
0100
1000
,
0001
0000
0010
0001
,
1000
0010
0100
0001
,
1000
0000
0100
1000
,
0001
0100
0010
1000
,
0001
0000
0100
0001
,
1000
0100
0010
0001
,
0100
0000
0000
0000
,
0000
0000
0000
0000
,
0110
0010
0010
1000
,
0001
0010
0100
1000
,
0000
0010
0010
0100
,
0001
0100
0010
1000
,
0000
0100
0100
1000
,
0001
0010
0100
1000
,
1002
0000
0103
0000
,
0201
0000
0310
0000
,
0100
0002
1003
0001
,
0010
0010
0100
0000
,
0100
2000
3001
1000
,
0010
0010
0100
0000
,
0010
2000
3001
1000
,
0100
0100
0010
0000
,
0010
0001
1000
0001
,
0100
0100
0010
0000
,
1000
0001
0001
1000
,
1000
0100
0100
0010
,
0100
1000
0100
1000
,
0001
0100
0001
0100
,
0010
1000
0010
1000
,
0001
0010
0001
0010
,
0001
0001
1000
0001
,
1000
1000
0001
1000
,
1001
0000
1000
0010
,
0110
0000
0010
0100
,
0101
0000
0001
1000
,
1100
0000
0100
0010
,
0011
0000
0001
1000
,
1010
0000
0010
0100
,
0110
0000
0100
0001
,
1001
0000
1000
0100
,
0010
0000
0000
0000
,
0000
0000
0000
0000
,
0011
0001
0001
1000
,
1010
1000
0001
0001
,
0011
0010
0100
2000
,
3010
0010
1000
0001
,
0011
0010
0100
2000
,
3001
0001
1000
0001
,
0200
0010
0310
0100
,
0002
1000
1000
1003
,
1001
1001
0000
0001
,
0010
0100
1000
0001
;

//---------------dance-single - ----------------
#NOTEDATA:;
#CHARTNAME:;
#STEPSTYPE:dance-single;
#DESCRIPTION:;
#CHARTSTYLE:;
#DIFFICULTY:Hard;
#METER:13;
#RADARVALUES:0.600460,0.579035,0.349540,0.244678,0.052431,481.000000,441.000000,40.000000,28.000000,0.000000,0.000000,0.000000,0.000000,0.000000,0.600460,0.579035,0.349540,0.244678,0.052431,481.000000,441.000000,40.000000,28.000000,0.000000,0.000000,0.000000,0.000000,0.000000;
#CREDIT:RIME;
#NOTES:
0000
0000
0000
0000
,
0000
0000
0000
0000
,
0000
0000
0000
0000
,
0000
0000
0000
0000
,
1000
1000
0001
0000
1000
0010
0001
0010
,
1000
0001
0010
1000
0010
0100
1000
0010
,
0100
0001
0001
0000
1000
0001
0010
0100
,
0010
0001
0100
1000
0100
0010
1000
0001
,
0010
0100
0100
0000
1000
0000
0100
1000
,
0010
0100
0002
1000
1003
0001
0001
0010
,
0110
0000
1001
0000
1000
1000
0010
0100
,
0001
0000
1000
1000
0001
1000
0001
0100
,
0110
0000
1001
0000
1000
0100
0001
0100
,
0010
0010
0001
0010
0010
0100
1000
0001
,
0100
0100
0001
0100
0100
0010
1000
0001
,
0010
0010
0100
0010
0010
0001
1000
0010
,
0110
0000
1001
0000
2000
3100
1000
0001
,
0200
0301
0100
0010
0020
1030
0010
0100
,
0001
0001
1000
0000
0002
0013
0001
1000
,
0020
1030
0010
0100
0200
0301
0100
0010
,
1010
0000
0101
0000
0002
0103
0001
1000
,
0200
1300
0100
0010
0020
0031
0010
0100
,
1000
1000
0001
0000
2000
3010
1000
0001
,
0200
0301
0100
0010
0020
1030
0010
0100
,
0002
0000
0000
1000
1000
0000
0100
0000
,
1000
1000
0010
0103
,
0001
0001
0100
0000
0101
0000
0001
0010
,
0100
0100
1000
0001
0200
0000
1300
0000
,
0100
0010
0010
1000
0001
0010
0100
1000
,
0001
0001
0100
0001
0020
0000
0130
0000
,
0010
0001
0010
0001
1000
0010
1000
0010
,
0100
0000
0110
0000
0010
0010
1000
0010
,
0100
0000
0000
0000
0001
0100
0000
0000
0001
0000
0000
0000
1000
0000
0100
0000
,
0010
0100
0000
0000
0010
0100
0000
0000
0010
0100
0000
0000
0010
0100
0000
0000
,
1000
0100
0020
0000
0031
0001
0010
0001
,
1000
0010
0100
0000
0020
0130
0020
0130
,
0010
0010
2000
0000
3001
0000
1000
0000
,
1001
0000
0001
0010
0200
0310
0200
0310
,
0100
0100
2000
0000
3001
0000
1000
0000
,
1010
0000
0000
0000
0010
0100
0000
0000
0001
0000
0001
0000
0100
0010
0000
0000
,
0010
0000
1000
0001
0010
0000
0200
0010
,
1300
0100
1000
0001
0001
0100
0001
0000
,
1000
0000
0001
0000
0001
0000
0100
0001
,
0100
0000
0010
1000
0001
0010
0001
0000
,
0011
0010
1000
0001
0100
1000
0001
0100
,
0100
0100
0001
0001
0010
0010
0001
0000
,
0101
0100
1000
0001
0010
1000
0001
0010
,
0010
0100
0010
0001
1001
1000
1010
0000
,
0010
0010
0100
0001
1000
0100
0100
0010
,
0010
0001
1000
0010
0100
0100
0001
0000
,
0101
0000
0001
0010
0100
1000
0001
0010
,
0110
0000
0100
1000
0010
0100
0001
1000
,
1001
0000
0001
0100
0010
1000
0001
0010
,
0110
0000
0010
0001
1000
0010
0100
0010
,
0110
0000
0010
1000
0001
0010
1000
0010
,
0110
0000
0100
0100
1000
0010
0100
0001
,
0011
0000
0010
0010
0100
0010
0001
1000
,
1010
0000
0010
0010
0100
0001
1000
0100
,
0110
0000
0010
0010
0002
0100
1003
0001
,
0020
0100
1030
0010
0011
0000
0101
0000
,
0110
0000
0010
1000
0010
0000
1000
0000
,
1001
0000
0001
0010
0100
0000
0010
0000
,
0110
0000
0010
0010
0001
0100
0020
0000
,
1030
1000
0010
1000
0001
0010
0001
0000
,
0011
0000
0010
0010
0100
1000
0002
0000
,
0103
0001
0100
0000
0001
0001
0010
0100
,
1000
0000
0000
0000
0010
1000
0000
0000
1001
0000
0000
0000
0001
0000
0010
0000
,
0100
0010
0000
0000
0100
0010
0000
0000
0100
0010
0000
0000
0100
0010
0000
0000
,
0011
0011
0000
1100
,
1001
0000
0101
0101
0000
0101
1010
0000
;

//---------------dance-single - ----------------
#NOTEDATA:;
#CHARTNAME:;
#STEPSTYPE:dance-single;
#DESCRIPTION:;
#CHARTSTYLE:;
#DIFFICULTY:Medium;
#METER:11;
#RADARVALUES:0.436925,0.487609,0.166032,0.069908,0.000000,350.000000,331.000000,19.000000,8.000000,0.000000,0.000000,0.000000,0.000000,0.000000,0.436925,0.487609,0.166032,0.069908,0.000000,350.000000,331.000000,19.000000,8.000000,0.000000,0.000000,0.000000,0.000000,0.000000;
#CREDIT:RIME;
#NOTES:
// measure 0
0000
0000
0000
0000
,  // measure 1
0000
0000
0000
0000
,  // measure 2
0000
0000
0000
0000
,  // measure 3
0000
0000
0000
0000
,  // measure 4
1000
0100
1000
0000
0001
0000
0001
0000
,  // measure 5
0100
0001
0100
0000
0010
0000
1000
0000
,  // measure 6
0001
0010
0100
0000
0010
0000
0010
0000
,  // measure 7
0001
0010
0001
0000
0100
0000
0100
0000
,  // measure 8
0010
1000
0001
0000
0010
0000
0010
0000
,  // measure 9
0100
1000
0001
0100
0001
0000
1000
0000
,  // measure 10
0100
0100
0010
0010
,  // measure 11
0001
0000
0010
0001
1000
0010
0100
0000
,  // measure 12
0020
0000
0000
0130
0010
0000
1000
0000
,  // measure 13
0002
0000
0000
1003
0001
0000
0010
0000
,  // measure 14
0200
0000
0000
0310
0100
0000
1000
0000
,  // measure 15
0002
0000
0000
1003
0001
0000
0100
0000
,  // measure 16
0001
0001
1000
1000
,  // measure 17
0100
0000
0010
0100
1000
0001
0100
0001
,  // measure 18
0100
0001
1000
1000
,  // measure 19
0010
0000
0100
0001
0010
0100
0010
0100
,  // measure 20
1000
0001
0010
0010
,  // measure 21
0100
0000
0010
0100
1000
0001
1000
0001
,  // measure 22
0100
0010
1000
1000
,  // measure 23
0100
0000
0010
0100
1000
0001
1000
0001
,  // measure 24
0100
0000
0000
0001
0001
0000
1000
0000
,  // measure 25
0100
0010
0001
0001
,  // measure 26
1001
0000
1000
0000
0010
0000
0100
0100
,  // measure 27
0001
1000
0001
1000
0001
0000
0010
0000
,  // measure 28
0000
0100
1000
0100
1000
0000
0001
0000
,  // measure 29
0100
0001
0100
0000
0010
0000
0010
0000
,  // measure 30
0000
0000
1000
0001
1000
0000
0001
0010
,  // measure 31
0001
0000
0010
0000
0002
0000
1003
0001
,  // measure 32
0100
0110
0010
1000
,  // measure 33
1010
0011
1010
0011
,  // measure 34
0001
1000
0001
0000
0100
0001
0100
0000
,  // measure 35
0010
0000
1000
0000
0001
0001
0000
0000
,  // measure 36
0010
0001
0010
0000
0100
0000
0100
0000
,  // measure 37
0110
0000
0100
1000
0100
1000
0000
0000
,  // measure 38
0001
1000
0001
0000
0100
0000
0010
0000
,  // measure 39
0110
0000
0010
1000
0001
0000
1000
0000
,  // measure 40
1100
0000
0100
0010
0100
0000
0010
0000
,  // measure 41
0001
1000
0001
0000
0100
0000
0000
0000
,  // measure 42
0010
0000
0100
0000
0100
0000
0010
0100
,  // measure 43
0010
0000
0100
0010
0100
0010
0100
0000
,  // measure 44
0001
0100
0001
0000
1000
0000
1000
0000
,  // measure 45
0100
1000
0100
0000
0010
0000
0010
0000
,  // measure 46
0001
1000
0001
0000
0100
0000
0100
0000
,  // measure 47
0020
0000
0000
0130
0010
0000
1000
0000
,  // measure 48
0002
0000
0000
1003
0001
0000
0010
0000
,  // measure 49
0200
0000
0000
0310
0100
0000
1000
0000
,  // measure 50
0100
0000
1000
0000
0010
0100
0010
0100
,  // measure 51
0001
0000
0010
0000
0100
0010
0100
0010
,  // measure 52
0001
0000
1000
0000
0010
0100
0010
0100
,  // measure 53
0001
0000
0010
0000
0100
1000
0100
1000
,  // measure 54
0001
0000
0100
0000
0010
1000
0010
1000
,  // measure 55
0001
0000
0010
0000
0100
0010
0100
0010
,  // measure 56
0001
0000
1000
0000
0001
0100
0001
0100
,  // measure 57
0010
0000
1000
0000
0001
1000
0001
1000
,  // measure 58
0100
0000
0010
0000
0100
0010
0100
0000
,  // measure 59
0010
0100
0010
0000
1001
0000
1001
0000
,  // measure 60
1000
0000
0010
0100
0001
0000
0001
0000
,  // measure 61
1000
0000
0100
0010
0001
0000
0001
0000
,  // measure 62
1001
0000
0001
0000
0010
0100
0010
0000
,  // measure 63
0100
0000
1000
0001
0100
0001
0100
0000
,  // measure 64
0010
0000
1000
0000
0010
1000
0010
0000
,  // measure 65
1000
0001
1000
0000
0001
0000
0010
0100
,  // measure 66
1000
1100
0100
0010
,  // measure 67
0011
1010
0011
1010
,  // measure 68
1001
1001
0000
0001
,  // measure 69
0010
0000
0100
1000
0000
1000
0001
0000
;
