#TITLE:Dead End Friends;
#SUBTITLE:;
#ARTIST:Them Crooked Vultures;
#TITLETRANSLIT:;
#SUBTITLETRANSLIT:;
#ARTISTTRANSLIT:;
#GENRE:;
#CREDIT:;
#MENUCOLOR:;
#METERTYPE:DDR X;
#BANNER:Dead End Friends.png;
#BACKGROUND:Dead End Friends-bg.png;
#LYRICSPATH:;
#CDTITLE:;
#MUSIC:Dead End Friends.mp3;
#OFFSET:-0.160;
#SAMPLESTART:25.800;
#SAMPLELENGTH:15.000;
#SELECTABLE:YES;
#LISTSORT:;
#DISPLAYBPM:151.000;
#BPMS:0.000=152.000,8.000=149.000,20.000=147.000,40.000=150.000,52.000=151.000,56.000=152.000,108.000=151.000,155.500=148.000,156.000=150.000,188.000=152.000;
#STOPS:;
#BGCHANGES:;
#ATTACKS:;

//---------------dance-single - ----------------
#NOTES:
     dance-single:
     :
     Hard:
     11:
     0.573,0.623,0.333,0.121,0.141: // measure 1
1000
1000
1000
0001
0010
0010
0010
0000
,  // measure 2
0011
0001
0001
0000
1010
1000
1000
0000
,  // measure 3
0001
0001
0001
1000
0010
0010
0010
0000
,  // measure 4
1010
0000
1000
0000
1000
0000
0000
0000
0011
0000
0001
0000
0001
0000
0010
0100
,  // measure 5
1000
1000
1000
0100
0001
0001
0001
0000
,  // measure 6
0101
0100
1000
0000
1100
1000
0010
0000
,  // measure 7
1000
1000
1000
0001
0100
0100
0100
0000
,  // measure 8
0001
1000
1000
1000
1000
1000
1000
1000
,  // measure 9
1001
0000
1000
0100
1000
0000
0100
1000
,  // measure 10
0100
0000
1000
0100
1000
0010
0010
0000
,  // measure 11
0101
0000
0001
0100
0001
0000
0100
0001
,  // measure 12
0100
0000
0000
0000
0001
0000
0100
0000
0001
0000
0010
0100
1000
0000
0000
0000
,  // measure 13
1001
0000
1000
0010
1000
0000
0001
0010
,  // measure 14
0001
0000
1000
0010
1000
0100
0010
0001
,  // measure 15
1001
0000
0001
0100
0001
0000
1000
0100
,  // measure 16
1000
0000
0001
0100
0001
0010
0100
1000
,  // measure 17
0010
0000
1010
0000
1100
0000
1000
0010
,  // measure 18
0100
0000
0000
0001
0010
0001
0100
0000
,  // measure 19
0000
0000
0000
0000
1100
0000
0000
0000
1000
0000
0000
0010
0000
0000
0100
0000
,  // measure 20
0001
0000
1000
0000
0001
1000
0001
0100
,  // measure 21
0000
0100
0000
0000
0010
0010
0000
0000
,  // measure 22
1000
1000
0000
0002
0000
0000
0010
0103
,  // measure 23
0001
0000
0100
0001
0100
0000
0001
0100
,  // measure 24
0001
0000
0100
0001
0010
0100
1000
0010
,  // measure 25
1000
0000
0011
0000
0101
0000
0010
0001
,  // measure 26
0100
0000
0000
0010
1000
0010
0100
0001
,  // measure 27
1000
0000
0000
0000
0100
0000
0000
0000
0010
0000
0000
0010
0000
0000
0100
0000
,  // measure 28
1000
0000
0001
0000
0100
0001
0100
0001
,  // measure 29
0000
0010
0000
0001
0011
0000
1001
0000
,  // measure 30
2010
0000
0100
3100
1000
0100
0010
0001
,  // measure 31
0000
0100
0000
0010
1010
0000
1100
0000
,  // measure 32
0110
0000
0010
0100
1000
0001
0100
0010
,  // measure 33
1000
0000
0100
1000
0100
0000
1000
0100
,  // measure 34
0010
0100
1000
0001
0100
0000
0010
0100
,  // measure 35
0010
0000
0100
0010
0100
0000
0010
0100
,  // measure 36
0001
1000
0100
0010
0001
0000
1000
0001
,  // measure 37
1000
0000
0001
1000
0010
0100
0001
1000
,  // measure 38
0020
0000
1030
0001
0200
0000
0301
1000
,  // measure 39
0100
0010
0100
1000
0001
0010
0100
1000
,  // measure 40
0010
0010
0000
0100
0001
0001
0000
1100
,  // measure 41
0000
1100
0000
1100
0000
0000
0000
0000
,  // measure 42
0010
0010
0000
0100
1000
1000
0000
0101
,  // measure 43
0000
0101
0000
0101
0000
0000
0000
0000
,  // measure 44
0100
0100
0000
0001
0010
0010
0000
1010
,  // measure 45
0000
1010
0000
1010
0000
0000
0000
0000
,  // measure 46
0100
0100
0000
1000
0010
0010
0000
0200
,  // measure 47
0001
0000
0000
0000
,  // measure 48
0020
0000
0330
0110
0000
0110
0010
1000
,  // measure 49
0002
0000
0000
0000
,  // measure 50
2000
0000
3003
0000
0000
1000
0100
0010
,  // measure 51
0001
1000
0002
0000
0000
0000
0000
0000
,  // measure 52
2000
0000
0000
0000
3003
1000
0100
0010
,  // measure 53
0200
0000
0000
0000
,  // measure 54
0020
0000
0000
0000
0330
0010
0001
0100
,  // measure 55
0001
0000
0000
1000
0000
0000
0001
0000
0000
0000
0000
0000
1000
0000
0000
0000
0000
0000
1000
0000
0010
0000
0100
0000
,  // measure 56
0010
1000
0010
0100
0001
0100
0001
0010
0100
1000
0010
0100
,  // measure 57
0001
1000
0000
0000
0100
0000
0000
0000
0000
0000
0000
0000
0000
0000
0010
0000
,  // measure 58
0001
0000
0010
0000
0011
0000
0000
0010
0100
0000
0000
0100
1000
0000
0001
0000
,  // measure 59
0100
0000
0000
0000
0000
0000
0010
0000
0000
1000
0000
0000
0000
0000
0000
0000
0000
0000
0000
0000
0000
0000
0000
0000
0000
0000
0000
0000
0000
0000
0000
0000
0000
0000
0000
0000
0100
0000
0000
0000
0010
0000
0000
0000
0100
0000
0000
0000
,  // measure 60
1000
0100
0010
0001
0100
0010
1000
0100
,  // measure 61
1000
0001
0000
0000
1000
0001
0000
0000
1000
0001
0000
0000
1000
0001
0000
0000
,  // measure 62
0001
0010
0000
0000
0010
0100
0000
0000
0100
1000
0000
0000
1000
0001
0000
0000
;
