#VERSION:0.83;
#TITLE:Baby Shark;
#SUBTITLE:;
#ARTIST:Pinkfong;
#TITLETRANSLIT:;
#SUBTITLETRANSLIT:;
#ARTISTTRANSLIT:;
#GENRE:Pop;
#ORIGIN:;
#CREDIT:;
#BANNER:Baby Shark-bn.png;
#BACKGROUND:Baby Shark-bg.png;
#PREVIEWVID:;
#JACKET:Baby Shark-jacket.png;
#CDIMAGE:;
#DISCIMAGE:;
#LYRICSPATH:;
#CDTITLE:;
#MUSIC:song.ogg;
#OFFSET:0.039000;
#SAMPLESTART:49.000011;
#SAMPLELENGTH:15.000000;
#SELECTABLE:YES;
#BPMS:0.000=115.000,
126.000=125.000,
142.000=120.000,
144.000=115.000;
#STOPS:;
#DELAYS:;
#WARPS:;
#TIMESIGNATURES:0.000=4=4;
#TICKCOUNTS:0.000=4;
#COMBOS:0.000=1;
#SPEEDS:0.000=1.000=0.000=0;
#SCROLLS:0.000=1.000;
#FAKES:;
#LABELS:0.000=Song Start;
#BGCHANGES:;
#KEYSOUNDS:;
#ATTACKS:
;

//---------------dance-single - ----------------
#NOTEDATA:;
#CHARTNAME:;
#STEPSTYPE:dance-single;
#DESCRIPTION:;
#CHARTSTYLE:;
#DIFFICULTY:Beginner;
#METER:1;
#RADARVALUES:0.075134,0.095527,0.085867,0.021467,0.000000,49.000000,41.000000,8.000000,2.000000,0.000000,0.000000,0.000000,0.000000,0.000000,0.075134,0.095527,0.085867,0.021467,0.000000,49.000000,41.000000,8.000000,2.000000,0.000000,0.000000,0.000000,0.000000,0.000000;
#CREDIT:RIME;
#NOTES:
0000
0000
0000
0000
,
0000
0000
0000
0000
,
0000
0000
0000
0000
,
0000
0000
0000
0000
,
1000
0000
0000
0000
,
1000
0000
0000
0000
,
0001
0000
0000
0000
,
0002
0000
0003
0000
,
0010
0000
0000
0000
,
0010
0000
0000
0000
,
0010
0000
0000
0000
,
0110
0000
0000
0000
,
0100
0000
0000
0000
,
0100
0000
0000
0000
,
0100
0000
0000
0000
,
0110
0000
0000
0000
,
1000
0000
0000
0000
,
1000
0000
0000
0000
,
1000
0000
0000
0000
,
1001
0000
0000
0000
,
0001
0000
0000
0000
,
0001
0000
0000
0000
,
0001
0000
0000
0000
,
1001
0000
0000
0000
,
0001
0000
0000
0000
,
0100
0000
0000
0000
,
0001
0000
0000
0000
,
0101
0000
0000
0000
,
0010
0000
0000
0000
,
1000
0000
0000
0000
,
0010
0000
0000
0000
,
1010
0000
0000
0000
,
1000
0000
0000
0000
,
0001
0000
0000
0000
,
0010
0000
0000
0000
,
0200
0000
0000
0000
,
0300
0000
0000
0000
,
1000
0000
0000
0000
,
1000
0000
0000
0000
,
0001
0000
0000
0000
,
1001
0000
0000
0000
,
0001
0000
0000
0000
,
0010
0000
0000
0000
,
0100
0000
0000
0000
,
1000
0000
1001
0000
;

//---------------dance-single - ----------------
#NOTEDATA:;
#CHARTNAME:;
#STEPSTYPE:dance-single;
#DESCRIPTION:;
#CHARTSTYLE:;
#DIFFICULTY:Easy;
#METER:6;
#RADARVALUES:0.253002,0.286582,0.171735,0.246869,0.000000,165.000000,149.000000,16.000000,23.000000,0.000000,0.000000,0.000000,0.000000,0.000000,0.253002,0.286582,0.171735,0.246869,0.000000,165.000000,149.000000,16.000000,23.000000,0.000000,0.000000,0.000000,0.000000,0.000000;
#CREDIT:RIME;
#NOTES:
0000
0000
0000
0000
,
0000
0000
0000
0000
,
0000
0000
0000
0000
,
0000
0000
0000
0000
,
2000
3000
0001
1000
,
0020
0030
1000
0010
,
0200
0300
0001
0010
,
0110
0000
0200
1300
,
0100
0100
0100
0020
,
0031
0001
0001
2000
,
3010
0010
0010
1000
,
1001
0000
0002
0013
,
0001
0001
0001
0200
,
0310
0010
0010
2000
,
3100
0100
0100
0010
,
0110
0000
0020
0031
,
0010
0010
0010
0200
,
1300
1000
1000
0002
,
0103
0100
0100
0010
,
0110
0000
0200
0301
,
0100
0100
0100
0020
,
1030
1000
1000
0200
,
0310
0010
0010
0001
,
1001
0000
0001
0010
,
1100
0100
0100
0010
,
0011
0001
0001
1000
,
1010
0010
0010
0100
,
0110
0000
0100
0001
,
1010
1000
1000
0001
,
0011
0010
0010
0100
,
0110
0100
0100
1000
,
1001
0000
0001
0010
,
0100
0100
0100
1000
,
0001
0001
0001
0100
,
0010
0010
0010
1000
,
2002
0000
3003
0000
,
0001
0010
0200
1300
,
0100
0100
0100
0020
,
0130
0100
0100
2000
,
3100
0100
0100
0010
,
0011
0000
0002
1003
,
0001
0001
0001
0200
,
0310
0010
0010
2000
,
3001
0001
0001
1000
,
0010
1000
1001
0000
;

//---------------dance-single - ----------------
#NOTEDATA:;
#CHARTNAME:;
#STEPSTYPE:dance-single;
#DESCRIPTION:;
#CHARTSTYLE:;
#DIFFICULTY:Medium;
#METER:8;
#RADARVALUES:0.351136,0.382110,0.085867,0.332736,0.021467,229.000000,221.000000,8.000000,31.000000,0.000000,0.000000,0.000000,0.000000,0.000000,0.351136,0.382110,0.085867,0.332736,0.021467,229.000000,221.000000,8.000000,31.000000,0.000000,0.000000,0.000000,0.000000,0.000000;
#CREDIT:RIME;
#NOTES:
0000
0000
0000
0000
,
0000
0000
0000
0000
,
0000
0000
0000
0000
,
2000
3000
0200
0300
0020
0030
0002
0003
,
0100
0000
0000
0100
0000
0000
0000
0000
0001
0000
0000
0000
1000
0000
0000
0000
,
0100
0000
0000
0100
0000
0000
0000
0000
1000
0000
0000
0000
0001
0000
0000
0000
,
0010
0000
0000
0010
0000
0000
0000
0000
0001
0000
0000
0000
0100
0000
0000
0000
,
0110
0000
0020
1030
,
0010
0100
0001
0100
0001
0000
2000
0000
,
3100
1000
0100
1000
0100
0000
0020
0000
,
0130
0010
0100
0010
0100
0000
1000
0000
,
1001
0000
0002
0103
,
0001
0010
0001
0010
0001
0000
2000
0000
,
3010
1000
0010
1000
0010
0000
0200
0000
,
0310
0100
0010
0100
0010
0000
1000
0000
,
1100
0000
0020
0031
,
0010
0100
1000
0100
0010
0000
0002
0000
,
1003
0001
0100
0001
1000
0000
0020
0000
,
0130
0010
1000
0010
0100
0000
0001
0000
,
0011
0000
0020
0130
,
0010
0001
0100
0001
0010
0000
0200
0000
,
1300
0100
0010
0100
1000
0000
0020
0000
,
0130
0010
1000
0010
0100
0000
0001
0000
,
1001
1000
0002
0013
,
0001
0010
0100
1000
0010
0000
0200
0000
,
0301
0100
0010
1000
0100
0000
0020
0000
,
0031
0010
0001
1000
0010
0000
0200
0000
,
0301
0100
0020
1030
,
0010
1000
0100
0010
0100
0000
0020
0000
,
0031
0010
0100
0001
0100
0000
2000
0000
,
3010
1000
0001
0100
0010
0000
0200
0000
,
0301
0100
0020
1030
,
0010
1000
0001
0100
0010
1000
0100
0000
,
1000
0100
0010
0001
0100
0010
1000
0000
,
0001
0100
1000
0100
0001
1000
0001
0000
,
0021
0230
2300
3001
,
1000
0010
0100
0000
0002
0000
1003
0000
,
0001
0010
0001
0010
0001
0000
0200
0000
,
0310
0100
0010
0100
0010
0000
2000
0000
,
3001
1000
0001
1000
0001
0000
0010
0000
,
0110
0000
0100
1000
,
0001
0100
1000
0100
0001
0000
0010
0000
,
1000
0010
0001
0010
1000
0000
0010
0000
,
0100
1000
0001
1000
0100
0000
0010
0000
,
0001
0000
0000
0010
0000
0000
0100
0000
1100
0000
0000
0000
0000
0000
0000
0000
;

//---------------dance-single - ----------------
#NOTEDATA:;
#CHARTNAME:;
#STEPSTYPE:dance-single;
#DESCRIPTION:;
#CHARTSTYLE:;
#DIFFICULTY:Hard;
#METER:12;
#RADARVALUES:0.535137,0.549282,0.107334,0.107334,0.322002,349.000000,339.000000,10.000000,10.000000,0.000000,0.000000,0.000000,0.000000,0.000000,0.535137,0.549282,0.107334,0.107334,0.322002,349.000000,339.000000,10.000000,10.000000,0.000000,0.000000,0.000000,0.000000,0.000000;
#CREDIT:RIME;
#NOTES:
0000
0000
0000
0000
,
0000
0000
0000
0000
,
0000
0000
0000
0000
,
2000
3100
2000
3001
0002
0103
0002
1003
,
0001
0000
0000
0010
0001
0000
0000
0000
0100
0000
0010
0000
1000
0000
0000
0000
,
0100
0000
0000
0010
0100
0000
0000
0000
0010
0000
0001
0000
1000
0000
0000
0000
,
0010
0000
0000
1000
0010
0000
0000
0000
1000
0000
0001
0000
0010
0000
0000
0000
,
0110
0000
0000
0000
0100
1000
0002
1003
,
0001
0000
0001
0000
0001
0000
0100
0001
0000
0100
0001
0000
1000
0000
0100
0000
,
0010
0000
0010
0000
0010
0000
0100
1000
0000
0100
1000
0000
0010
0000
0100
0000
,
0001
0000
0001
0000
0001
0000
1000
0100
0000
1000
0100
0000
0010
0000
0001
0000
,
1000
0000
0020
0130
,
0010
0000
1000
0000
0001
0000
1000
0010
0000
0010
1000
0000
0001
0000
0010
0000
,
0100
0000
1000
0000
0001
0000
1000
0100
0000
0100
1000
0000
0001
0000
0100
0000
,
0010
0000
1000
0000
0001
0000
1000
0100
0000
0100
1000
0000
0010
0000
0100
0000
,
0101
0000
0000
0000
0001
0010
0100
1000
,
1001
0000
0001
0000
0001
0000
0100
0010
0000
1000
0001
0000
0010
0000
0100
0000
,
1100
0000
1000
0000
1000
0000
0001
1000
0000
0010
0100
0000
0010
0000
1000
0000
,
1001
0000
0001
0000
0001
0000
0010
0100
0000
1000
0001
0000
0100
0000
0010
0000
,
1010
1000
0002
0013
,
0001
0000
0010
0000
0010
0000
0001
0100
0000
0100
0001
0000
1000
0000
0001
0000
,
1000
0000
0010
0000
0010
0000
1000
0100
0000
0100
1000
0000
0001
0000
1000
0000
,
0001
0000
0100
0000
0100
0000
0001
0100
0000
0100
0001
0000
1000
0000
0001
0000
,
1001
0001
1000
1000
0001
0010
0100
1000
,
0010
0000
0100
0000
0100
0000
0001
0010
0000
0100
1000
0000
0001
0000
0100
0000
,
0010
0000
0100
0000
0100
0000
0001
0100
0000
0010
1000
0000
0001
0000
1000
0000
,
0100
0000
0010
0000
0010
0000
0001
0010
0000
0100
1000
0000
0010
0000
1000
0000
,
0001
0000
0000
0001
0000
0000
0100
0000
0020
0000
0000
0000
1030
0000
0000
0000
,
0010
0000
0100
0000
0001
0000
0010
0100
0000
1000
0100
0000
0010
0000
0001
0000
,
0100
0000
0010
0000
1000
0000
0100
0010
0000
0001
0100
0000
0001
0000
0010
0000
,
0100
0000
1000
0000
0010
0000
0100
0001
0000
0001
1000
0000
0100
0000
0010
0000
,
0110
0000
0100
0100
1000
0010
0100
0001
,
1000
0000
0010
0000
0001
0000
1000
0100
0000
0001
1000
0000
0001
0000
1000
0000
,
0001
0000
0010
0000
1000
0000
0001
0100
0000
1000
0001
0000
1000
0000
0001
0000
,
1000
0000
0010
0000
0001
0000
1000
0100
0000
0001
1000
0000
0010
0000
1000
0000
,
0001
0010
1000
0001
0100
1000
0001
0100
,
0010
0010
0020
1030
0010
0100
0001
1000
,
0100
0000
0100
0000
0100
0000
0010
0001
0000
0001
1000
0000
0010
0000
0100
0000
,
0001
0000
0001
0000
0001
0000
0010
0100
0000
0100
1000
0000
0001
0000
0100
0000
,
0010
0000
0010
0000
0010
0000
1000
0001
0000
0001
0010
0000
0100
0000
1000
0000
,
0010
0100
0002
1003
0001
0010
0100
1000
,
0010
0000
0010
0000
0010
0000
1000
0001
0010
0001
1000
0000
0010
0000
0100
0000
,
0001
0000
0001
0000
0001
0000
0010
0100
1000
0100
0010
0000
0001
0000
0100
0000
,
0010
0000
0010
0000
0010
0000
1000
0001
0100
0001
1000
0000
0100
0000
0010
0000
,
0110
0000
0010
0001
0000
0001
1000
0000
1001
0000
0000
0000
0000
0000
0000
0000
;

//---------------dance-single - ----------------
#NOTEDATA:;
#CHARTNAME:;
#STEPSTYPE:dance-single;
#DESCRIPTION:;
#CHARTSTYLE:;
#DIFFICULTY:Challenge;
#METER:15;
#RADARVALUES:0.743672,0.979156,0.161001,0.118068,0.799639,485.000000,470.000000,15.000000,11.000000,0.000000,0.000000,0.000000,0.000000,0.000000,0.743672,0.979156,0.161001,0.118068,0.799639,485.000000,470.000000,15.000000,11.000000,0.000000,0.000000,0.000000,0.000000,0.000000;
#CREDIT:RIME;
#NOTES:
// measure 0
0000
0000
0000
0000
,  // measure 1
0000
0000
0000
0000
,  // measure 2
0000
0000
0000
0000
,  // measure 3
2000
0010
3002
0100
2003
0100
3002
0010
,  // measure 4
1003
0000
0001
1000
0001
0000
0010
0000
0100
0000
1000
0000
0010
0000
0100
0000
,  // measure 5
0010
0000
1000
0010
1000
0000
0001
0000
0010
0000
0001
0000
0100
0000
0010
0000
,  // measure 6
1000
0000
0001
0010
0011
0000
0010
0000
0100
0000
1000
0000
1001
0000
0001
0000
,  // measure 7
0101
0000
0000
0000
0000
0000
0100
0000
0000
0001
0000
0000
1000
0000
0000
0100
0000
0000
0010
0001
0010
0001
0000
0000
,  // measure 8
1000
0000
0010
0100
0010
0000
0100
0001
1000
0001
0100
0000
0010
0000
1000
0000
,  // measure 9
0001
0000
0010
0100
0010
0000
0001
0010
0100
0010
0001
0000
0100
0000
0010
0000
,  // measure 10
1000
0000
0001
0010
0001
0000
1000
0010
0100
0010
1000
0000
0001
0000
0010
0000
,  // measure 11
0110
0000
0000
0100
0000
0000
0100
0000
2000
0000
0000
0000
3002
0000
0000
0000
,  // measure 12
0103
0000
0001
0100
0001
0000
1000
0100
0010
0100
1000
0000
0001
0000
0100
0000
,  // measure 13
0010
0000
1000
0010
1000
0000
0001
1000
0010
1000
0001
0000
0010
0000
0100
0000
,  // measure 14
1000
0000
0010
1000
0010
0000
1000
0001
0010
0001
1000
0000
0100
0000
0010
0000
,  // measure 15
0110
0000
0100
0000
0000
0000
0100
0000
1000
0000
0010
1000
0001
0100
0001
0000
,  // measure 16
0011
0000
0010
0100
0010
0000
0100
0010
0001
0010
0100
0000
1000
0000
0001
0000
,  // measure 17
1001
0000
0001
1000
0001
0000
1000
0010
0001
0010
1000
0000
0100
0000
0010
0000
,  // measure 18
0110
0000
0010
0001
0010
0000
0001
0100
1000
0100
0001
0000
1000
0000
0100
0000
,  // measure 19
1100
0000
1000
0100
0010
0000
0001
0000
0200
0000
0310
0000
0020
0000
1030
0000
,  // measure 20
0010
0000
0100
0010
0100
0000
0001
0010
1000
0010
0001
0000
0100
0000
0010
0000
,  // measure 21
1000
0000
0100
0010
0100
0000
1000
0010
0001
0010
1000
0000
0001
0000
0010
0000
,  // measure 22
0100
0000
0010
0100
0010
0000
0001
0100
1000
0100
0001
0000
1000
0000
0100
0000
,  // measure 23
0010
0000
0011
0000
0001
0001
0100
0100
0010
0000
1000
0001
1000
0001
0010
0000
,  // measure 24
0100
0000
0010
0100
1000
0000
0010
0100
0001
0010
0100
1000
0001
1000
0001
0000
,  // measure 25
0100
0000
0010
0100
0001
0000
1000
0100
0010
0001
0100
0010
1000
0001
1000
0100
,  // measure 26
0010
0100
0010
0001
1000
0000
0010
0100
0010
1000
0001
0010
0100
1000
0001
0000
,  // measure 27
1000
0100
0010
0100
0000
0010
0001
0010
0200
0000
1300
0000
2000
0000
3001
0000
,  // measure 28
1000
0000
0010
0100
0010
0000
1000
0001
0010
0100
0001
0000
0100
0000
0010
0000
,  // measure 29
0001
0000
0100
0010
2000
3000
0001
0010
1000
0010
0100
0000
1000
0000
0001
0000
,  // measure 30
0100
0000
0010
1000
0001
0000
0100
0010
1000
0100
0001
0000
0100
0000
0010
0000
,  // measure 31
0100
0000
0100
1000
0001
0001
0000
0001
0100
0010
1000
0100
0010
0000
0100
0000
,  // measure 32
1000
0000
0100
0000
1000
0000
0100
0000
0010
0000
0100
0000
0010
0000
0001
0000
0010
0000
0001
0000
0000
0010
0000
0000
0100
0000
0000
1000
0000
0000
0001
0000
0000
0100
0000
0000
0010
0000
0000
1000
0000
0000
0001
0000
0000
0000
0000
0000
,  // measure 33
0001
0000
0010
0000
0001
0000
0010
0000
0100
0000
0010
0000
0100
0000
1000
0000
0100
0000
1000
0000
0000
0001
0000
0000
0100
0000
0000
0010
0000
0000
1000
0000
0000
0001
0000
0000
0010
0000
0000
0100
0000
0000
0010
0000
0000
0000
0000
0000
,  // measure 34
0001
0000
0010
0000
0001
0000
0010
0000
0100
0000
0010
0000
0100
0000
1000
0000
0100
0000
1000
0000
0000
0001
0000
0000
1000
0000
0010
0000
1000
0000
0010
0000
0100
0000
0010
0000
0100
0000
0001
0000
0100
0000
0001
0000
0000
1000
0000
0000
,  // measure 35
0100
0000
0010
0100
0010
0000
0100
0000
1000
0001
0100
0010
1000
0001
0100
0000
,  // measure 36
0001
0000
0000
0000
0000
0000
0001
0000
0000
0000
0000
0000
0010
0000
0100
0000
0010
0000
0100
0000
0000
0000
0000
0000
1000
0000
0000
0000
0000
0000
0010
0000
0000
0000
0000
0000
1000
0000
0000
0001
0000
0000
1000
0000
0000
0000
0000
0000
,  // measure 37
0001
0000
0100
0000
0101
0000
0001
0010
0000
0010
1000
0000
0001
0000
0100
0000
,  // measure 38
0010
0000
0100
0000
1100
0000
1000
0010
0000
0010
0001
0000
0010
0000
0100
0000
,  // measure 39
0001
0000
1000
0000
1001
0000
0001
0010
0000
0010
0100
0000
1000
0000
0001
0000
,  // measure 40
0100
0000
0000
0000
0000
0000
0010
0000
0000
0000
0000
0000
1000
0000
0100
0000
1000
0000
0100
0000
0000
0000
0000
0000
0010
0000
0000
0000
0000
0000
0100
0000
0000
1000
0000
0000
0001
0000
0000
0100
0000
0000
0010
0000
0000
0000
0000
0000
,  // measure 41
1010
0000
1000
0000
0001
0000
1000
0010
0001
0010
1000
0001
1000
0001
1000
0000
,  // measure 42
0010
0000
1000
0000
1000
0000
0001
0010
1000
0010
0001
1000
0001
1000
0001
0000
,  // measure 43
0100
0000
0010
0000
0010
0000
1000
0001
0100
0001
0010
0100
0010
0100
0010
0000
,  // measure 44
0001
0000
1000
0010
0000
0100
0001
0000
1001
0000
0000
0000
0000
0000
0000
0000
;
