#TITLE:Alone;
#SUBTITLE:;
#ARTIST:Heart;
#TITLETRANSLIT:;
#SUBTITLETRANSLIT:;
#ARTISTTRANSLIT:;
#GENRE:;
#CREDIT:;
#MENUCOLOR:;
#METERTYPE:DDR X;
#BANNER:Alone.png;
#BACKGROUND:Alone-bg.png;
#LYRICSPATH:;
#CDTITLE:;
#MUSIC:Alone.mp3;
#OFFSET:-0.300;
#SAMPLESTART:65.900;
#SAMPLELENGTH:15.000;
#SELECTABLE:YES;
#LISTSORT:;
#DISPLAYBPM:88.000;
#BPMS:0.000=87.740,72.000=87.400,116.000=88.000,128.000=87.700,138.500=71.200;
#STOPS:;
#BGCHANGES:-0.250=Alone.avi=1.000=0=0=0,
99999=-nosongbg-=1.000=0=0=0 // don't automatically add -songbackground-
;
#ATTACKS:;

//---------------dance-single - ----------------
#NOTES:
     dance-single:
     :
     Hard:
     10:
     0.372,0.335,0.172,0.134,0.096: // measure 1
1000
0100
1000
0100
0010
0100
0010
0001
,  // measure 2
1000
0100
1000
0100
0010
0001
0100
1000
,  // measure 3
0010
0000
0010
0000
0100
0000
0100
1000
0001
0000
0100
0000
0001
0000
0100
0000
,  // measure 4
0010
1000
0010
1000
0100
0001
0010
1000
,  // measure 5
0100
0000
0010
0000
0010
0000
0010
0000
0100
0100
0000
1000
0000
0000
0100
0000
,  // measure 6
0010
0100
0100
1000
0100
0010
0001
0100
,  // measure 7
0010
0000
0000
0100
0000
0100
0000
0000
0010
0000
1000
0000
0010
0000
1000
0000
,  // measure 8
0001
0100
0001
0100
0001
0010
0100
1000
,  // measure 9
0001
0100
0100
0100
0010
1000
1000
0001
,  // measure 10
0001
0000
0000
1000
0001
0100
0010
1000
,  // measure 11
0100
1000
0000
1000
0000
0000
0000
0000
0100
0000
0010
0000
0001
0000
0010
0000
,  // measure 12
0100
1000
0001
1000
0010
1000
0100
0001
,  // measure 13
0200
1000
1300
0000
2000
0010
3010
0000
,  // measure 14
0020
0000
0100
0000
0130
0000
0000
0000
0200
0000
0001
0000
0301
0100
0010
0000
,  // measure 15
1000
0000
0100
0010
0000
0100
0000
0000
1000
0000
0001
0000
0100
0001
0100
0000
,  // measure 16
0010
1000
0100
1000
2002
0000
3003
0000
,  // measure 17
1000
0100
0010
0001
0010
0001
0010
0100
,  // measure 18
1000
0100
1000
0010
0100
0001
0100
0010
,  // measure 19
1010
0000
0000
0000
1000
0000
1100
0000
0000
0000
1000
0000
1001
0000
0000
0001
,  // measure 20
0100
0000
0010
0000
1000
0000
0100
0000
0000
0000
1000
0000
0100
0010
0100
0010
,  // measure 21
0000
0000
0000
0100
1000
1000
0001
0100
,  // measure 22
0020
1000
1030
0100
0010
0100
0000
0000
,  // measure 23
1100
0000
0001
0101
0000
0001
0100
0001
,  // measure 24
1100
0000
0001
0000
0010
0000
0100
0000
2000
0000
0000
0000
3001
0000
0001
1000
,  // measure 25
0100
0000
0010
0000
0010
0000
0010
0000
0000
0000
0100
0000
1000
0000
0001
0100
,  // measure 26
0001
1010
0001
1100
,  // measure 27
1001
0001
0100
0001
0000
0010
0100
2000
,  // measure 28
0000
0000
0000
3100
0000
0000
2000
0000
0000
0000
0000
0000
3001
0000
0010
0000
0100
0000
1000
0000
0000
2000
0000
0000
,  // measure 29
3001
0010
0001
0000
1000
0000
1001
0000
0000
0000
0001
0000
1001
0000
1000
0000
,  // measure 30
0100
0010
0010
0100
0110
0100
2000
0000
,  // measure 31
3001
0010
0001
0000
1000
0000
1001
0000
0000
0000
1000
0000
0100
0000
0010
0000
,  // measure 32
0220
0000
0000
0330
,  // measure 33
0010
0100
1000
0001
0010
0100
1000
0010
,  // measure 34
1000
0000
1010
0000
,  // measure 35
0001
0000
0011
0000
,  // measure 36
1001
0000
0000
0000
;
