#TITLE:20 de Enero;
#SUBTITLE:;
#ARTIST:La Oreja de Van Gogh;
#TITLETRANSLIT:;
#SUBTITLETRANSLIT:;
#ARTISTTRANSLIT:;
#GENRE:;
#CREDIT:;
#MENUCOLOR:;
#METERTYPE:DDR X;
#BANNER:20 de Enero.png;
#BACKGROUND:20 de Enero-bg.png;
#LYRICSPATH:;
#CDTITLE:;
#MUSIC:20 de Enero.mp3;
#OFFSET:-0.200;
#SAMPLESTART:72.380;
#SAMPLELENGTH:15.000;
#SELECTABLE:YES;
#LISTSORT:;
#DISPLAYBPM:145.000;
#BPMS:0.000=145.020;
#STOPS:;
#BGCHANGES:-1.000=20 de Enero.avi=1.000=0=0=0,
99999=-nosongbg-=1.000=0=0=0 // don't automatically add -songbackground-
;
#ATTACKS:;

//---------------dance-single - ----------------
#NOTES:
     dance-single:
     :
     Hard:
     10:
     0.435,0.555,0.175,0.214,0.054: // measure 1
0000
0000
0000
0000
,  // measure 2
0000
0000
0000
0000
,  // measure 3
0000
0000
0000
0000
,  // measure 4
0000
0000
0000
0000
0000
0000
0001
0100
,  // measure 5
0000
0000
0000
0000
0000
0000
0010
2000
,  // measure 6
0000
0100
0000
3100
0000
0010
0000
0001
,  // measure 7
0000
0100
0000
0000
0000
0000
0000
0000
,  // measure 8
0020
0000
0000
0000
0000
0000
0130
0010
,  // measure 9
0000
0000
0000
0000
0000
0000
0001
0010
,  // measure 10
0000
0100
0000
1000
0000
0001
0000
1001
,  // measure 11
0000
0000
2000
0000
,  // measure 12
0000
0000
0000
0000
,  // measure 13
3001
0000
0000
0010
0000
0000
0100
0000
0000
0000
0010
0000
0000
0000
0110
0000
,  // measure 14
0000
0010
0000
0001
0000
1000
0000
0010
,  // measure 15
0000
1010
0000
0000
2000
0000
0000
0000
,  // measure 16
0002
0000
0000
3003
,  // measure 17
1001
0000
0000
0001
0000
0000
0010
0000
0000
0000
0100
0000
0000
0000
1000
0000
,  // measure 18
0000
0001
0000
0100
0000
0010
0000
1000
,  // measure 19
0200
0000
0000
0000
,  // measure 20
0310
0001
1000
0100
0010
0001
1000
0010
,  // measure 21
1010
0000
0010
0000
1000
0010
0001
0000
,  // measure 22
0011
0000
0010
0000
0001
0010
1000
0000
,  // measure 23
1000
0010
0100
0010
1000
0001
0100
0001
,  // measure 24
0001
0010
0100
0010
0001
1000
0100
1000
,  // measure 25
0010
0000
1010
0000
1000
0100
0010
0000
,  // measure 26
0010
0000
0011
0000
0001
0100
0010
0000
,  // measure 27
1000
0010
1000
0100
0010
0001
0100
0001
,  // measure 28
1000
0010
1000
0100
0010
0001
0100
0001
,  // measure 29
1000
0000
0000
0010
0000
0000
0100
0000
0000
0000
0001
0000
1000
0000
0100
0000
,  // measure 30
0000
0010
0000
0110
0000
0010
0100
0020
,  // measure 31
0000
0130
1000
0001
1000
1000
0010
1000
,  // measure 32
0001
0010
0001
0100
0010
0010
1000
0010
,  // measure 33
1000
0000
0000
0100
0000
0000
0010
0000
0000
0000
0100
0000
1000
0000
0002
0000
,  // measure 34
0000
1003
0000
0010
0000
2000
0001
3001
,  // measure 35
0000
0010
0001
0010
0100
0100
1000
0100
,  // measure 36
1000
0010
1000
0010
0100
0100
0001
0100
,  // measure 37
0020
0000
1030
0000
,  // measure 38
0200
0001
0301
0000
,  // measure 39
0020
0000
0031
0010
,  // measure 40
0200
1000
1300
0000
,  // measure 41
0010
1010
0100
0101
,  // measure 42
0010
0011
0100
1100
,  // measure 43
1000
1001
0010
0110
,  // measure 44
2002
0000
0000
0000
3003
0000
0000
0000
1000
0001
1000
0001
1000
0001
1000
0001
,  // measure 45
0010
0100
1000
0001
0000
0100
0001
0010
,  // measure 46
0000
0100
1000
0010
0000
0100
0001
0020
,  // measure 47
0000
0130
0100
0000
1000
0000
0010
0000
,  // measure 48
0001
0000
0100
0000
1000
0001
0100
0001
,  // measure 49
1000
1000
0010
1000
0000
0100
0010
0100
,  // measure 50
0000
1000
0001
0010
0000
0010
0200
0000
,  // measure 51
0000
0310
0000
0000
0011
0000
0010
0000
,  // measure 52
2002
0000
0000
0000
3003
1000
0010
0100
,  // measure 53
0001
0001
1000
0100
0000
1000
0100
0020
,  // measure 54
0000
0130
1000
0001
0000
0001
1000
0200
,  // measure 55
0000
0310
0100
0000
1000
0000
0010
0000
,  // measure 56
0001
0000
0100
0000
1000
0001
0100
0001
,  // measure 57
1000
1000
0010
1000
0000
0001
0100
0001
,  // measure 58
0000
0000
1000
0000
0000
0000
0000
0000
0010
0000
0000
1000
0000
0000
0001
0000
,  // measure 59
0200
0000
0000
0000
,  // measure 60
0301
0000
0100
0000
0010
0000
1000
0000
0001
0000
1000
0001
1000
0000
0001
1000
,  // measure 61
0001
0000
0000
0000
;
