#VERSION:0.83;
#TITLE:debut;
#SUBTITLE:;
#ARTIST:AKRIILA;
#TITLETRANSLIT:debut;
#SUBTITLETRANSLIT:;
#ARTISTTRANSLIT:;
#GENRE:;
#ORIGIN:;
#CREDIT:;
#BANNER:bn.png;
#BACKGROUND:bg.jpg;
#PREVIEWVID:;
#JACKET:jacket.jpg;
#CDIMAGE:;
#DISCIMAGE:;
#LYRICSPATH:;
#CDTITLE:cdtitle_ukiarrow.png;
#MUSIC:debut.mp3;
#OFFSET:0.310000;
#SAMPLESTART:24.799992;
#SAMPLELENGTH:12.000000;
#SELECTABLE:YES;
#BPMS:0.000=155.000,
61.000=77.500,
63.000=155.000,
99.000=77.500,
101.000=155.000,
125.000=77.500,
140.000=155.000;
#STOPS:140.000=0.387;
#DELAYS:;
#WARPS:;
#TIMESIGNATURES:0.000=4=4;
#TICKCOUNTS:0.000=4;
#COMBOS:0.000=1;
#SPEEDS:0.000=1.000=0.000=0;
#SCROLLS:0.000=1.000;
#FAKES:;
#LABELS:0.000=Song Start;
#BGCHANGES:0.750=debut.avi=1.000=0=0=1=====,
237.000=bg.jpg=1.000=0=0=1=====,
99999=-nosongbg-=1.000=0=0=0 // don't automatically add -songbackground-
;
#KEYSOUNDS:;
#ATTACKS:
;

//---------------dance-single - ----------------
#NOTEDATA:;
#CHARTNAME:;
#STEPSTYPE:dance-single;
#DESCRIPTION:;
#CHARTSTYLE:;
#DIFFICULTY:Challenge;
#METER:11;
#RADARVALUES:0.505977,0.769025,0.480250,0.150078,0.155081,354.000000,306.000000,48.000000,15.000000,92.000000,0.000000,0.000000,0.000000,0.000000,0.505977,0.769025,0.480250,0.150078,0.155081,354.000000,306.000000,48.000000,15.000000,92.000000,0.000000,0.000000,0.000000,0.000000;
#CREDIT:;
#NOTES:
// measure 0
0000
MMMM
0000
0000
,  // measure 1
0000
0000
0000
0000
,  // measure 2
0000
0000
0000
0000
,  // measure 3
0000
0000
0000
0000
,  // measure 4
0000
0000
0000
0000
,  // measure 5
0000
0000
0000
0000
,  // measure 6
0000
0000
0000
0000
,  // measure 7
0000
0000
0000
0000
,  // measure 8
0000
0000
0001
0010
0100
0000
0000
1100
,  // measure 9
0000
0011
0000
1000
0010
0000
0100
0001
,  // measure 10
1000
0000
1000
0010
0100
0000
0000
0101
,  // measure 11
0000
1010
0000
0001
0010
0100
1000
0010
,  // measure 12
0100
0001
0001
0010
0100
0000
0000
1100
,  // measure 13
0000
0011
0000
1000
0010
0000
0000
0100
,  // measure 14
0010
0000
1000
0100
0010
0000
0000
0011
,  // measure 15
0000
0000
1100
0000
2000
0000
3001
1000
0001
0100
0010
1000
0001
0000
0100
0000
,  // measure 16
0001
0000
0001
0100
0010
0000
1000
0100
,  // measure 17
0010
0100
1000
0010
0100
0001
1000
0100
,  // measure 18
0010
0000
0100
1000
0100
0000
0010
0001
,  // measure 19
0010
0100
1000
0010
0100
0001
1000
0000
,  // measure 20
1000
0100
0001
0100
1000
0010
0100
0001
,  // measure 21
0010
0001
0100
0010
1000
0001
1000
1000
,  // measure 22
0020
0000
0030
0001
0010
0001
0100
0010
,  // measure 23
2000
3000
1010
MMMM
,  // measure 24
0101
0000
0000
0000
MMMM
0000
0000
0000
0011
0000
0000
0000
MMMM
0000
0001
0001
,  // measure 25
0010
0010
0200
0000
1300
0000
0001
0000
0101
0000
0000
0000
0001
0000
1000
0000
,  // measure 26
1010
0000
MMMM
0000
1000
0010
0001
0010
,  // measure 27
1000
0100
MMMM
0000
1100
0000
MMMM
0000
,  // measure 28
0011
0000
MMMM
0000
0010
0001
0100
1000
,  // measure 29
0100
0001
0010
0010
0100
1000
0010
0010
,  // measure 30
0100
0001
1000
1000
0100
0010
0001
0001
,  // measure 31
0100
0000
0010
0000
0000
0000
0000
0000
0000
0000
0000
0000
0001
0001
0010
0100
,  // measure 32
1000
1000
0010
0100
0202
0000
0303
0000
0000
0000
0000
1000
0001
0001
0100
0010
,  // measure 33
1000
1000
0100
0010
0001
0000
2002
0000
3003
0000
0000
0000
1000
0100
0010
0001
,  // measure 34
1000
1000
0001
0010
0100
1000
0002
0000
0003
1000
0100
0010
0001
1000
0002
0000
,  // measure 35
0003
11M0
01M1
11M0
,  // measure 36
01M1
1M10
0M11
1M10
,  // measure 37
0M11
0000
1000
0001
0010
0100
1000
0001
,  // measure 38
1000
0000
0001
1000
0100
0010
0001
1000
,  // measure 39
0001
0001
0M11
0000
1M10
0000
0M11
0000
,  // measure 40
1M10
01M1
11M0
01M1
,  // measure 41
11M0
0000
0001
1000
0100
0010
0001
1000
,  // measure 42
0001
0000
1000
0001
0010
0100
1000
0001
,  // measure 43
1000
0010
011M
0000
101M
0000
M110
0000
,  // measure 44
M101
M110
M011
011M
,  // measure 45
110M
0000
0001
0100
0010
1000
0100
0010
,  // measure 46
0001
0000
0001
0010
0100
1000
0010
0100
,  // measure 47
0001
0010
M110
0000
M011
0000
011M
0000
,  // measure 48
110M
0000
0001
0010
0100
1000
0100
0100
,  // measure 49
0010
0001
0201
0000
0320
0000
0030
1000
,  // measure 50
0010
0100
0001
0010
0100
0000
1000
0100
,  // measure 51
0110
2M01
010M
0M01
,  // measure 52
010M
0M01
010M
0M01
,  // measure 53
010M
0000
3M01
0010
0100
0010
0100
0000
,  // measure 54
0100
20M0
00M1
00M1
,  // measure 55
30M1
0001
1000
0010
0100
0010
0100
0000
,  // measure 56
0010
0100
0001
1000
,  // measure 57
0001
M020
M100
M100
,  // measure 58
M100
0000
0000
0000
0000
0000
M100
0000
000M
0000
M000
0000
010M
0000
M000
000M
M000
000M
M100
000M
M000
000M
M000
000M
,  // measure 59
M130
0010
0000
0000
0000
0000
0000
0000
;

//---------------dance-single - ----------------
#NOTEDATA:;
#CHARTNAME:;
#STEPSTYPE:dance-single;
#DESCRIPTION:;
#CHARTSTYLE:;
#DIFFICULTY:Medium;
#METER:9;
#RADARVALUES:0.383056,0.473246,0.190099,0.260135,0.055029,268.000000,249.000000,19.000000,26.000000,23.000000,0.000000,0.000000,0.000000,0.000000,0.383056,0.473246,0.190099,0.260135,0.055029,268.000000,249.000000,19.000000,26.000000,23.000000,0.000000,0.000000,0.000000,0.000000;
#CREDIT:;
#NOTES:
// measure 0
0000
MMMM
0000
0000
,  // measure 1
0000
0000
0000
0000
,  // measure 2
0000
0000
0000
0000
,  // measure 3
0000
0000
0000
0000
,  // measure 4
0000
0000
0000
0000
,  // measure 5
0000
0000
0000
0000
,  // measure 6
0000
0000
0000
0000
,  // measure 7
0000
0000
0000
0000
,  // measure 8
0000
0000
0100
0000
1001
0000
0000
0010
,  // measure 9
0000
1001
0000
1000
0010
0000
0000
0100
,  // measure 10
0001
0000
1000
0000
1010
0000
0000
0100
,  // measure 11
0000
0001
0000
0010
0100
1000
0001
0100
,  // measure 12
0001
0100
0010
0000
1001
0000
0000
0100
,  // measure 13
0000
1001
0000
1000
0100
0000
0000
0010
,  // measure 14
0001
0000
1000
0000
1100
0000
0000
0010
,  // measure 15
0000
0001
2000
0000
0000
0000
3001
0000
,  // measure 16
0100
0000
0010
1000
0010
0000
1000
0100
,  // measure 17
0010
0000
0001
1000
0001
0000
1000
0000
,  // measure 18
0100
0000
0010
0001
0010
0000
0001
0100
,  // measure 19
0010
0000
1000
0001
1000
0000
2002
0000
,  // measure 20
3003
1000
0100
1000
0100
0000
0010
0001
,  // measure 21
0010
0000
0100
0000
0010
0001
1000
0000
,  // measure 22
2200
0000
3300
0000
0010
0001
1000
0000
,  // measure 23
0202
0303
0110
0000
,  // measure 24
1001
0000
0000
0000
0000
0000
0000
0000
0110
0000
0000
0000
0000
0000
0001
1000
,  // measure 25
0001
1000
0001
0000
2000
0000
0000
0000
0100
0000
0000
0000
3001
0000
0000
0000
,  // measure 26
0101
0000
0002
0000
0010
0000
1003
0010
,  // measure 27
1000
0001
0000
0000
1001
0000
0000
0000
,  // measure 28
0110
0000
0000
0000
1000
0001
1000
0001
,  // measure 29
0010
0000
0100
1000
0100
0000
1000
0001
,  // measure 30
1000
0000
0001
0100
0001
0100
0010
0100
,  // measure 31
0010
0100
0000
0000
0000
0000
0001
0010
,  // measure 32
0100
1000
2200
3300
0000
0000
1000
0010
,  // measure 33
0100
0001
0101
0202
0303
0000
0001
0010
,  // measure 34
0100
1000
0020
0200
0330
0001
0020
0200
,  // measure 35
0330
1000
1000
1000
,  // measure 36
1000
1000
1000
1000
,  // measure 37
1000
0000
0001
0010
0000
0100
0000
1000
,  // measure 38
0000
0001
1000
0100
1000
0000
0001
0010
,  // measure 39
0100
1000
0001
0000
0001
0000
0001
0000
,  // measure 40
0001
0001
0001
0001
,  // measure 41
0001
0000
1000
0100
0010
0001
1000
0000
,  // measure 42
0010
0000
1000
0000
1000
0001
0010
0100
,  // measure 43
1000
0010
0200
0000
0001
0000
0001
0000
,  // measure 44
0001
0010
0010
0010
,  // measure 45
0310
0000
1000
0010
0100
0001
1000
0000
,  // measure 46
0001
0000
0001
0010
0100
1000
0010
0100
,  // measure 47
0001
0010
0200
0000
1000
0000
1000
0000
,  // measure 48
1300
0000
0100
0010
0001
1000
0100
0000
,  // measure 49
0010
0100
2000
0000
3002
0000
0003
1000
,  // measure 50
0010
0100
0002
0000
2003
0000
3000
0000
,  // measure 51
2100
0001
0001
0001
,  // measure 52
0001
0100
0100
0100
,  // measure 53
3100
0000
1000
0100
0010
0000
0001
0000
,  // measure 54
0001
0020
0100
0100
,  // measure 55
0130
1000
0010
1000
0010
1000
0010
1000
,  // measure 56
0000
1000
0100
0010
,  // measure 57
0001
M200
M010
M010
,  // measure 58
M010
0000
0000
0000
0000
0000
M010
0000
000M
0000
M000
0000
001M
0000
M000
000M
M000
000M
M010
000M
M000
000M
M000
000M
,  // measure 59
M310
0100
0000
0000
0000
0000
0000
0000
;

//---------------dance-single - ----------------
#NOTEDATA:;
#CHARTNAME:;
#STEPSTYPE:dance-single;
#DESCRIPTION:;
#CHARTSTYLE:;
#DIFFICULTY:Hard;
#METER:12;
#RADARVALUES:0.481679,0.739447,0.230120,0.210109,0.140073,337.000000,314.000000,23.000000,21.000000,86.000000,0.000000,2.000000,0.000000,0.000000,0.481679,0.739447,0.230120,0.210109,0.140073,337.000000,314.000000,23.000000,21.000000,86.000000,0.000000,2.000000,0.000000,0.000000;
#CREDIT:;
#NOTES:
// measure 0
0000
MMMM
0000
0000
,  // measure 1
0000
0000
0000
0000
,  // measure 2
0000
0000
0000
0000
,  // measure 3
0000
0000
0000
0000
,  // measure 4
0000
0000
0000
0000
,  // measure 5
0000
0000
0000
0000
,  // measure 6
0000
0000
0000
0000
,  // measure 7
0000
0000
0000
0000
,  // measure 8
0000
0000
0001
0000
0110
0000
0000
1000
,  // measure 9
0000
0110
0000
0001
0110
0000
0000
1000
,  // measure 10
1001
0000
0001
0000
0110
0000
0000
1000
,  // measure 11
0000
0002
0000
0013
0001
0010
0100
1000
,  // measure 12
0100
1000
0001
0000
0110
0000
0000
1000
,  // measure 13
0000
0110
0000
0001
0110
0000
0000
1000
,  // measure 14
1001
0000
0001
0000
0110
0000
0000
1000
,  // measure 15
0000
0000
0001
0000
2000
0000
0001
3001
0100
1000
0100
0010
0001
0000
0000
0000
,  // measure 16
0101
0000
0001
0100
0010
0000
1000
0100
,  // measure 17
0010
0100
1000
0010
0100
0001
1000
0000
,  // measure 18
1100
0000
1000
0100
0010
0000
0001
0010
,  // measure 19
0100
1000
0001
0100
0010
1000
0001
0000
,  // measure 20
0011
0000
0100
1000
0001
0000
0001
0010
,  // measure 21
0001
0100
0010
1000
0100
0010
0001
1000
,  // measure 22
0002
0000
0003
1000
0010
0100
0001
1000
,  // measure 23
0002
0003
1100
MMMM
,  // measure 24
0011
0000
0000
0000
MMMM
0000
0000
0000
1001
0000
0000
0000
MMMM
0000
0001
0100
,  // measure 25
1000
0100
0002
0000
1003
0000
0000
0000
0101
0000
0000
0000
0001
0000
0000
0000
,  // measure 26
2100
0000
0MMM
0000
3001
0100
1000
0100
,  // measure 27
0001
0010
MMMM
0000
1100
0000
MMMM
0000
,  // measure 28
0011
0000
MMMM
0000
0010
0001
0100
0010
,  // measure 29
1000
1000
0001
0010
0100
1000
0100
0010
,  // measure 30
0001
0001
0100
0010
1000
0001
0010
0100
,  // measure 31
1000
0000
1000
0000
0000
0000
0000
0000
0000
0000
0000
0000
0001
0010
0200
0000
,  // measure 32
0301
0000
0000
0100
0000
0000
1000
0000
0000
0010
0000
0000
2020
0000
0000
0000
0000
0000
0000
0000
0000
0000
0000
0000
3000
0000
0000
0000
0000
0000
0000
0000
0030
1000
0000
0000
0001
0000
0000
0100
0000
0000
0001
0000
0000
0100
0000
0000
,  // measure 33
0010
1000
0100
0010
0001
0000
2002
0000
3003
0000
0000
0000
1000
0100
0010
0001
,  // measure 34
1000
0001
0010
0100
2000
0000
0002
0000
3003
1000
0100
0010
0002
0000
2000
0000
,  // measure 35
3003
0000
10M0
0100
00M1
0100
10M0
0100
,  // measure 36
00M1
0000
1M00
0010
0M01
0010
1M00
0010
,  // measure 37
0M01
0000
0001
0100
0010
1000
0100
0010
,  // measure 38
0001
1000
0100
0001
1000
0010
0100
0010
,  // measure 39
0001
1000
0M01
0010
1M00
0010
0M01
0010
,  // measure 40
1M00
0000
00M1
0100
10M0
0100
00M1
0100
,  // measure 41
10M0
0000
0001
0100
0010
1000
0100
0010
,  // measure 42
0001
0001
1000
0000
1000
0100
0010
0100
,  // measure 43
0010
0010
M001
0010
M100
0010
M001
0010
,  // measure 44
M100
0000
100M
0100
001M
0100
100M
0100
,  // measure 45
001M
0000
0100
1000
0010
0001
0010
1000
,  // measure 46
0100
0100
0010
0001
0100
1000
0100
0001
,  // measure 47
0010
0000
0100
0000
1000
0000
0400
0300
0400
0300
0001
0000
1000
0000
0100
0000
,  // measure 48
0001
0000
0001
0100
1000
0010
0100
0001
,  // measure 49
0010
0100
2000
0000
3002
0000
0003
1000
,  // measure 50
0010
0100
0002
0000
2003
0000
3100
0010
,  // measure 51
0001
2M01
00M1
0M01
,  // measure 52
00M1
0M01
00M1
0M01
,  // measure 53
00M1
0000
3100
0010
0001
0010
0001
0000
,  // measure 54
0001
20M0
01M0
01M0
,  // measure 55
30M1
1000
0001
0010
0001
0010
0001
0000
,  // measure 56
0010
0001
0100
0010
,  // measure 57
1000
M010
M010
M010
,  // measure 58
M010
0000
0000
0000
0000
0000
M010
0000
000M
0000
M000
0000
001M
0000
M000
000M
M000
000M
M010
000M
M000
000M
M000
000M
,  // measure 59
M010
0100
0000
0000
0000
0000
0000
0000
;

//---------------dance-single - CHAOS----------------
#NOTEDATA:;
#CHARTNAME:;
#STEPSTYPE:dance-single;
#DESCRIPTION:CHAOS;
#CHARTSTYLE:;
#DIFFICULTY:Edit;
#METER:14;
#RADARVALUES:0.606029,0.798603,0.170088,0.180094,0.410213,424.000000,407.000000,17.000000,18.000000,39.000000,0.000000,4.000000,0.000000,0.000000,0.606029,0.798603,0.170088,0.180094,0.410213,424.000000,407.000000,17.000000,18.000000,39.000000,0.000000,4.000000,0.000000,0.000000;
#CREDIT:;
#NOTES:
// measure 0
0000
MMMM
0000
0000
,  // measure 1
0000
0000
0000
0000
,  // measure 2
0000
0000
0000
0000
,  // measure 3
0000
0000
0000
0000
,  // measure 4
0000
0000
0000
0000
,  // measure 5
0000
0000
0000
0000
,  // measure 6
0000
0000
0000
0000
,  // measure 7
0000
0000
0000
0000
,  // measure 8
0000
0000
0001
0010
0100
0000
0000
1100
,  // measure 9
0000
0011
0000
1000
0010
0000
0100
0001
,  // measure 10
1000
0000
1000
0010
0100
0000
0000
0101
,  // measure 11
0000
1010
0000
0001
0010
0100
1000
0010
,  // measure 12
0100
0001
0001
0010
0100
0000
0000
1100
,  // measure 13
0000
0011
0000
1000
0010
0000
0000
0100
,  // measure 14
0010
0000
0010
1000
0100
0000
0000
1200
,  // measure 15
0000
0000
0010
0000
0002
0300
0103
1000
0010
0100
0001
1000
0001
0000
0100
0000
,  // measure 16
0010
0000
0100
0001
0100
0000
0010
0000
1000
0000
0000
0000
0100
0000
0010
0000
,  // measure 17
0100
0000
1000
0010
1000
0000
0010
0000
0100
0000
0001
1000
0001
0000
1000
0000
,  // measure 18
0100
0000
0010
0100
0010
0000
0100
0000
1000
0000
0000
0000
0100
0000
0010
0000
,  // measure 19
0001
0000
0010
0100
0010
0000
0100
0000
1000
0000
0010
0100
0010
0000
0100
0000
,  // measure 20
0001
0000
1000
0001
1000
0000
0100
0000
0010
0000
0001
0000
0000
0000
0001
0000
,  // measure 21
0010
0000
0001
0100
0001
0000
0100
0000
0010
0000
1000
0001
1000
0000
0010
0000
,  // measure 22
0200
0000
0300
0010
1000
0010
0100
0001
,  // measure 23
0010
0000
0100
1000
0100
0000
1000
0000
0010
0000
0100
0001
0100
0000
0000
0000
,  // measure 24
0101
0000
0001
0010
0001
0000
0010
0000
0011
0000
0000
0000
0000
0000
0001
0100
,  // measure 25
1000
0100
0002
0000
1000
0000
0103
0000
0101
0000
2000
0000
0001
0000
3100
0000
,  // measure 26
1100
0000
0000
0000
1000
0000
0001
0000
1000
0000
0010
0100
0010
0000
0001
0000
,  // measure 27
0010
2000
0001
3100
1100
0002
1000
0103
,  // measure 28
0101
0000
0000
0000
0001
0000
1000
0000
0001
0000
0010
0100
0010
0100
0010
0000
,  // measure 29
0001
0000
0100
0000
0010
1000
0010
0000
0100
0000
0001
0000
0010
0001
0010
0000
,  // measure 30
0100
0000
1000
0000
0010
0100
0010
0000
1000
0000
0100
0010
0001
0100
0010
0000
,  // measure 31
1000
0000
1000
0000
0000
0000
0000
0000
0000
0000
0000
0000
1000
0100
0100
0010
,  // measure 32
1000
0010
0001
1000
2002
0000
3000
1003
0001
1000
0001
0100
0100
0001
0010
0010
,  // measure 33
0100
1000
0010
0100
0010
0000
0220
0000
0330
0000
0000
0000
0010
1000
0001
0010
,  // measure 34
0100
1000
0010
0100
0001
1000
0002
0000
0003
1000
0010
0100
0001
1000
0002
0000
,  // measure 35
0003
0000
0000
0000
1000
0000
0100
0000
0010
0000
0001
1000
0001
1000
0001
0000
,  // measure 36
0010
0000
0000
0000
1000
0000
0100
0000
0010
0000
0001
1000
0001
1000
0001
0000
,  // measure 37
0010
0000
0000
0000
0001
0000
0010
0000
0100
0000
1000
0001
1000
0001
1000
0000
,  // measure 38
0001
0000
1000
0000
0400
0300
0400
0300
0001
0000
0010
0000
0100
0000
1000
0000
,  // measure 39
0010
0000
0100
0000
0001
0000
1000
0000
0100
0000
0010
0100
0010
0001
1000
0000
,  // measure 40
0001
0000
0000
0000
0001
0000
1000
0000
0100
0000
0010
0100
0010
0001
1000
0000
,  // measure 41
0001
0000
0000
0000
1000
0000
0100
0000
0001
0000
0001
0100
1000
0001
1000
0000
,  // measure 42
0001
0000
0000
0000
0002
0000
0000
0000
0103
0000
1000
0100
0001
1000
0001
0000
,  // measure 43
0010
0100
0010
0000
1000
0000
0010
0000
0100
0000
1000
0100
1000
0100
1000
0000
,  // measure 44
0001
0000
0000
0000
1000
0000
0010
0000
0100
0000
0001
0010
0001
0010
0001
0000
,  // measure 45
1000
0000
0000
0000
0001
0000
0100
0000
0010
0000
1000
0100
1000
0100
1000
0000
,  // measure 46
0001
0000
0400
0300
0400
0300
1000
0000
0010
0000
0100
0000
0001
0000
0010
0000
,  // measure 47
0100
0000
1000
0000
0001
0000
0100
0000
0010
0000
1000
0100
0010
0100
1000
0000
,  // measure 48
0001
0000
0000
0000
0001
0000
0010
0000
0100
0000
1000
0100
0010
0100
1000
0000
,  // measure 49
0001
0000
0100
0000
0010
0000
1000
0000
0010
0000
0100
0001
1000
0001
0100
0000
,  // measure 50
0010
0000
1000
0000
0001
0000
0010
0000
0100
0000
1000
0001
0100
0001
1000
0000
,  // measure 51
0100
0M21
010M
0M01
,  // measure 52
010M
0M01
010M
0M01
,  // measure 53
010M
0000
0M31
0010
1000
0010
0001
0000
,  // measure 54
0001
20M0
01M0
00M1
,  // measure 55
00M1
3100
1100
1000
0001
1000
0002
0000
,  // measure 56
1000
0000
0103
0001
1000
0010
0100
0000
,  // measure 57
0001
0000
M020
000M
M100
000M
M100
000M
,  // measure 58
M100
0000
0000
000M
0000
0000
M100
0000
000M
0000
M000
0000
010M
0000
M000
000M
M000
000M
M100
000M
M000
000M
M000
000M
,  // measure 59
0130
0010
0000
0000
0000
0000
0000
0000
;
