#VERSION:0.83;
#TITLE:X vs Zero;
#SUBTITLE:;
#ARTIST:Pokerus Project;
#TITLETRANSLIT:;
#SUBTITLETRANSLIT:;
#ARTISTTRANSLIT:;
#GENRE:;
#CREDIT:;
#MUSIC:X vs Zero (short).mp3;
#BANNER:X vs Zero.png;
#BACKGROUND:X vs Zero bg.png;
#CDTITLE:Magna Trick title!.png;
#SAMPLESTART:53.680;
#SAMPLELENGTH:12.000;
#SELECTABLE:YES;
#OFFSET:0.496;
#BPMS:0.000=134.952
,26.000=269.904
,302.000=134.952
,340.000=269.904
,416.000=134.952
,448.000=269.904
;
#STOPS:;
#SPEEDS:0.000=1.000=0.000=0;
#SCROLLS:0.000=1.000;
#TICKCOUNTS:0.000=4;
#TIMESIGNATURES:0.000=4=4;
#LABELS:0.000=Song Start;
#COMBOS:0.000=1;
#ORIGIN:;
#PREVIEWVID:;
#JACKET:;
#CDIMAGE:;
#DISCIMAGE:;
#BGCHANGES:0.063=X VS Zero.mp4=1.000=0=0=1,
99999.000=-nosongbg-=1.000=0=0=0=StretchNoLoop====
;
#FGCHANGES:;

//--------------- dance-single - Magna Trick ----------------
#NOTEDATA:;
#STEPSTYPE:dance-single;
#DESCRIPTION:Magna Trick;
#DIFFICULTY:Beginner;
#METER:4;
#RADARVALUES:0.224422,0.411613,0.065117,0.341866,0.028489,193,185,8,42,0,0,0,0,0,0.224422,0.411613,0.065117,0.341866,0.028489,193,185,8,42,0,0,0,0,0;
#CHARTNAME:Magna Trick;
#CHARTSTYLE:;
#CREDIT:Magna Trick;
#NOTES:
0000
0000
0000
0000
,
0000
0000
2000
0000
,
3002
0000
0000
0003
0010
0000
0000
0000
,
0000
0000
0001
0000
,
0000
0000
1000
0000
,
0000
0000
0001
0000
,
0200
0000
0301
0000
,
0000
0000
1000
0000
,
0000
0000
0001
0000
,
0000
0000
1000
0000
,
0000
0000
0100
0000
,
0000
0000
0010
0000
,
0000
0000
0001
0000
,
0000
0000
1000
0000
,
0000
0000
0010
0000
,
0000
0000
0100
0000
,
0000
0000
0001
0000
,
0000
0000
1000
0000
,
0000
0000
0001
0000
,
0000
0000
1000
0000
,
0000
0000
0100
0000
,
0000
0000
0010
0000
,
0000
0000
0000
0000
0002
0000
0000
0023
,
0000
0000
0230
0000
0000
0300
2000
0000
,
0000
3000
0200
0000
,
0000
0000
0302
0000
,
0000
0000
0003
0000
0100
0000
0000
0010
,
0000
0000
0000
0000
1000
0000
0000
0001
,
0000
0000
2000
0000
,
0000
0000
3020
0000
,
0000
0000
0000
0000
0130
0000
0000
0100
,
0000
0000
0000
0000
0010
0000
0000
0010
,
0000
0000
0200
0000
,
0000
0000
0302
0000
,
0000
0000
0000
0000
0013
0000
0000
0100
,
0000
0000
0000
0000
1000
0000
0000
0001
,
0000
0000
2000
0000
,
0000
0000
3020
0000
,
0000
0000
0000
0000
0031
0000
0000
1000
,
0000
0000
0100
0000
,
0010
0000
0002
0000
,
0000
0000
2003
0000
,
0000
0000
0000
0000
3010
0000
0000
0100
,
0000
0010
0000
0200
,
0000
0300
0002
0000
,
0000
0003
0000
0000
2000
0000
0000
0000
,
0000
0000
0000
0000
3010
0000
0000
0010
,
0000
0100
0000
0020
,
0000
0030
0002
0000
,
0000
0000
0203
0000
,
0302
0000
0000
0000
0013
0000
0000
0100
,
0000
0000
1000
0000
,
0100
0000
0020
0000
,
0000
0000
0230
0000
,
0000
0000
2300
0000
,
0000
0000
3002
0000
,
0000
0000
0000
0000
0013
0000
0000
0010
,
0000
0000
0000
0000
0100
0000
0000
0100
,
0000
0000
0000
0000
1000
0000
0000
0001
,
0000
0000
0000
0000
0001
0000
0000
0001
,
0000
0000
0000
0000
0100
0000
0000
0100
,
0000
0000
0000
0000
1000
0000
0000
1000
,
0000
0000
0000
0000
0010
0000
0000
0010
,
0000
0000
0002
0000
,
0000
0000
0003
0000
0100
0000
0000
0010
,
0000
0000
0000
0000
1000
0000
0000
0001
,
0000
0000
0000
0000
0010
0000
0000
0100
,
0000
0000
0000
0000
1000
0000
0000
0001
,
0000
0000
0000
0000
0100
0000
0000
0010
,
0000
0000
0000
0000
0001
0000
0000
0010
,
0000
0000
0000
0000
1000
0000
0000
0100
,
0000
0000
0020
0000
,
0000
0000
0032
0000
,
0000
0000
0000
0000
1003
0000
0000
0001
,
0000
1000
0020
0000
,
0000
0000
0000
0000
0230
0000
0000
0300
,
1001
0000
0000
0000
0000
0000
0000
0000
0000
0000
0000
0001
0000
0000
0000
0000
,
1001
0000
1000
0100
,
1001
0000
0000
0000
0000
0000
0000
0000
0000
0000
0000
0001
0000
0000
0000
0000
,
1001
0000
0000
0000
0000
0000
0000
0000
0000
0000
0000
0000
0000
0000
0000
0000
1000
0000
0000
0000
0000
0000
1000
0000
0000
0000
0000
0000
1000
0000
0000
0001
,
0000
0000
0000
0000
0000
0000
0000
0010
0000
0000
0000
0000
0000
0000
0000
0000
0000
0000
0000
0000
0000
0000
0000
0001
0000
0000
0000
0000
0000
0000
0000
0000
,
0000
0000
0000
0000
0000
0000
0000
1000
0000
0000
0000
0000
0000
0000
0000
0000
0000
0000
0000
0000
0000
0000
0000
0010
0000
0000
0000
0000
0000
0000
0000
0010
,
0000
0000
0000
0000
0000
0000
0000
1000
0000
0000
0000
0000
0000
0000
0000
0000
0000
0000
0000
0000
0000
0000
0000
0001
0000
0000
0000
0000
0000
0000
0000
0000
,
0000
0000
0000
0000
0000
0000
0000
0010
0000
0000
0000
0000
0000
0000
0000
0000
0000
0000
0000
0000
0000
0000
0000
0001
0000
0000
0000
0001
0000
0000
0000
0000
,
2000
0000
3200
0000
,
0310
0000
0000
0001
0000
0000
0000
0000
,
0001
0000
0000
0100
0000
0000
0000
0000
,
0010
0000
0000
1000
0000
0000
0000
0000
,
0100
0000
0000
1000
0000
0000
0000
0000
,
0001
0000
0000
1000
0000
0000
0000
0000
,
1000
0000
0000
1000
0000
0000
0000
0000
,
0001
0000
0000
0001
0000
0000
0000
0000
,
0020
0000
0000
0030
,
0100
0000
0000
0100
0000
0000
0000
0000
,
1000
0000
0000
1000
0000
0000
0000
0000
,
0010
0000
0000
0010
0000
0000
0000
0000
,
0001
0000
0000
0100
0000
0000
0000
0000
,
1000
0000
0000
1000
0000
0000
0000
0000
,
0010
0000
0000
0010
0000
0000
0000
0000
,
1000
0000
0000
1000
0000
0000
0000
0000
,
0200
0000
0000
0000
,
0320
0000
0000
0000
,
0031
0000
0000
1000
0000
0000
0001
0000
,
0002
0000
0000
0003
,
0200
0000
0000
0300
1001
0000
0000
0000
,
0000
0000
0000
0001
0000
0000
0000
0000
1001
0000
0000
0000
0000
0000
0000
0000
,
1001
0100
0010
0000
,
0000
0000
0000
0001
0000
0000
0000
0000
1001
0000
0000
0000
0000
0000
0000
0000
,
0001
0000
0000
1000
0000
0000
0002
0000
0000
0000
0000
0000
0000
0000
0000
0000
,
0000
0000
0000
0000
,
0000
0000
0000
0000
0000
0000
0000
0003
,
1000
0000
0000
0010
0000
0000
0100
0000
0002
0000
0000
0000
0000
0000
0000
0000
,
0000
0000
0000
0003
0000
0000
0000
0000
;

//--------------- dance-single - Magna Trick ----------------
#NOTEDATA:;
#STEPSTYPE:dance-single;
#DESCRIPTION:Magna Trick;
#DIFFICULTY:Easy;
#METER:8;
#RADARVALUES:0.341866,0.594553,0.130235,0.309308,0.085467,294,278,16,38,0,0,0,0,0,0.341866,0.594553,0.130235,0.309308,0.085467,294,278,16,38,0,0,0,0,0;
#CHARTNAME:Magna Trick;
#CHARTSTYLE:;
#CREDIT:Magna Trick;
#NOTES:
0000
0000
0000
0000
,
0000
0000
0002
0000
,
2003
0000
0000
3000
1001
0000
0000
0000
,
0000
0000
0000
1000
0000
0000
1000
0000
0001
0000
0000
0000
0000
0000
0000
0000
,
0001
0000
0000
0001
0000
0000
0001
0000
1000
0000
0000
0000
0000
0000
0000
0000
,
0000
0000
0000
1000
0000
0000
1000
0000
1000
0000
0000
0000
0000
0000
0000
0000
,
0010
0000
0000
0010
0000
0000
0010
0000
0000
0000
0000
0000
1000
0000
0000
0000
,
0000
0001
0000
1000
,
0000
1000
0000
1000
,
0000
0001
0000
0001
,
0000
0001
0000
0100
,
0000
0100
0000
0100
,
0000
0100
0000
0010
,
0000
0010
0000
0010
,
0000
0010
0000
1000
,
0000
0100
0000
1000
,
0000
0100
0000
0010
,
0000
0001
0000
0010
,
0000
0001
0000
0100
,
0000
0010
0000
0100
,
0000
0010
0000
1000
,
0000
0001
0000
1000
,
0000
0000
0001
0000
0020
0000
0000
0230
,
0000
0000
0320
0000
0000
0030
0001
0000
,
0001
0001
0002
0000
,
0000
0000
2003
0000
,
0000
0000
3000
0000
0010
0000
0000
0100
,
0000
0000
0001
0000
1000
0000
0000
0100
,
0000
0010
0002
0000
,
0000
0000
0203
0000
,
0000
0000
0000
0000
0310
0000
0000
0010
,
0000
0000
0100
0000
0100
0000
0000
0100
,
0000
0001
0000
0000
0020
0000
0000
0000
,
0000
0000
2030
0000
,
0000
0000
0000
0000
3100
0000
0000
0010
,
0000
0000
1000
0000
0001
0000
0000
0010
,
0000
1000
0002
0000
,
0000
0000
0203
0000
,
0000
0000
0000
0000
1300
0000
0000
0001
,
0000
1000
0010
0000
,
0100
0001
0000
0000
2000
0000
0000
0000
,
0000
0000
3002
0000
,
0000
0000
0000
0000
0103
0000
0000
0010
,
0000
0100
0000
0010
,
1000
0001
2000
0000
,
0000
0000
3001
0010
,
0001
0000
0010
0000
0100
0000
0000
0100
,
0000
0010
0000
0001
,
1000
0001
2000
0000
,
0000
0000
3020
0000
,
2030
0000
0000
0000
3100
0000
0000
0010
,
0000
0010
0001
0000
,
0010
0001
0200
0000
,
0000
0000
0310
1000
,
0010
1000
0002
0000
,
0000
0000
2003
0000
,
0000
0000
0000
0000
3100
0000
0000
0100
,
0000
0000
0000
0000
0010
0000
0000
0010
,
0000
0000
0001
0000
0001
0000
0000
1000
,
0000
0000
0001
0000
0001
0000
0000
1000
,
0000
0000
0100
0000
0100
0000
0000
0010
,
0000
0000
0001
0000
0001
0000
0000
0100
,
0000
0000
0010
0000
0010
0000
0000
1000
,
0000
1000
2000
0000
,
0000
0000
3000
0000
0010
0000
0000
0100
,
0000
0000
0001
0000
0001
0000
0000
1000
,
0000
0000
0100
0000
0100
0000
0000
0010
,
0000
0000
0001
0000
0001
0000
0000
1000
,
0000
0000
0010
0000
0010
0000
0000
0100
,
0000
0000
1000
0000
1000
0000
0000
0100
,
0000
0000
0001
0000
0001
0000
0000
0010
,
0000
0100
0200
0000
,
0000
0000
2300
0000
,
0000
0000
0000
0000
3001
0000
0000
1000
,
0000
0001
0200
0000
,
0000
0000
0000
0000
0320
0000
0000
0030
,
1001
0000
0000
0000
0000
0000
0000
0000
0000
0000
0000
1000
0000
0000
1000
0000
,
1001
0000
0000
0000
0000
0000
0000
0000
0001
0000
0000
0001
0000
0000
0001
0000
,
1001
0000
0000
0000
0000
0000
0000
0000
0000
0000
0000
1000
0000
0000
1000
0000
,
1001
0000
0000
0000
0000
0000
0000
0000
0000
0000
0000
0000
0000
0000
0000
0000
0001
0000
0000
0000
0000
0000
0001
0000
0000
0000
0000
0000
0001
0000
0000
1000
,
0000
0000
0000
0000
0000
0010
0000
0000
0000
0000
0000
0100
0000
0000
0000
0000
0000
0001
0000
0000
0000
0000
0000
1000
0000
0000
0000
0001
0000
0000
0000
1000
,
0000
0000
0000
0000
0000
0100
0000
0000
0000
0000
0000
0010
0000
0000
0000
0000
0000
0001
0000
0000
0000
0000
0000
0010
0000
0000
0000
0001
0000
0000
0000
0010
,
0000
0000
0000
0000
0000
0100
0000
0000
0000
0000
0000
1000
0000
0000
0000
0000
0000
1000
0000
0000
0000
0000
0000
0001
0000
0000
0000
1000
0000
0000
0000
0001
,
0000
0000
0000
0000
0000
1000
0000
0000
0000
0000
0000
0010
0000
0000
0000
0000
0000
0100
0000
0000
0000
0000
0000
0001
0000
0000
0000
1000
0000
0000
0000
0000
,
0002
0000
0023
0000
,
0130
0000
0000
1000
0000
0000
0001
0000
,
1000
0000
0000
0010
0000
0000
0100
0000
,
0001
0000
0000
1000
0000
0000
0100
0000
,
0010
0000
0000
0001
0000
0000
0010
0000
,
1000
0000
0000
0001
0000
0000
0100
0000
,
0001
0000
0000
0001
0000
0000
1000
0000
,
0010
0000
0000
0010
0000
0000
1000
0000
,
0200
0000
0000
0300
,
0010
0000
0000
0010
0000
0000
0100
0000
,
0001
0000
0000
0001
0000
0000
1000
0000
,
0100
0000
0000
0100
0000
0000
0010
0000
,
1000
0000
0000
0010
0000
0000
1000
0000
,
0001
0000
0000
0001
0000
0000
1000
0000
,
0100
0000
0000
0100
0000
0000
0010
0000
,
0001
0000
0000
0001
0000
0000
1000
0000
,
0020
0000
0000
0000
,
0230
0000
0000
0000
,
0301
0000
0000
0001
0000
0000
0001
0000
,
2000
0000
0000
3000
,
0020
0000
0000
0030
1001
0000
0000
0000
,
0000
0000
0000
1000
0000
0000
1000
0000
1001
0000
0000
0000
0000
0000
0000
0000
,
1001
0000
0000
0001
0000
0000
0001
0000
0001
0000
0000
0000
0000
0000
0000
0000
,
0000
0000
0000
1000
0000
0000
1000
0000
1001
0000
0000
0000
0000
0000
0000
0000
,
1001
0000
0000
1001
0000
0000
2002
0000
0000
0000
0000
0000
0000
0000
0000
0000
,
0000
0000
0000
0000
,
0000
0000
0000
0000
0000
0000
0000
3003
,
0011
0000
0000
0110
0000
0000
1100
0000
2002
0000
0000
0000
0000
0000
0000
0000
,
0000
0000
0000
3003
0000
0000
0000
0000
;

//--------------- dance-single - Magna Trick ----------------
#NOTEDATA:;
#STEPSTYPE:dance-single;
#DESCRIPTION:Magna Trick;
#DIFFICULTY:Medium;
#METER:11;
#RADARVALUES:0.415123,0.686022,0.154654,0.268609,0.089536,357,338,19,33,0,0,0,0,0,0.415123,0.686022,0.154654,0.268609,0.089536,357,338,19,33,0,0,0,0,0;
#CHARTNAME:Magna Trick;
#CHARTSTYLE:;
#CREDIT:Magna Trick;
#NOTES:
0000
0000
0000
0000
,
0000
0000
0000
0000
1000
0100
1000
0100
,
0010
0001
0010
0001
1001
0000
0000
0000
,
0000
0000
0000
0001
0000
0000
0001
0000
0101
0000
0000
0000
0000
0000
0000
0000
,
1000
0000
0000
1000
0000
0000
1000
0000
1100
0000
0000
0000
0000
0000
0000
0000
,
0000
0000
0000
0001
0000
0000
0001
0000
0011
0000
0000
0000
0000
0000
0000
0000
,
1010
0000
0000
1000
0000
0000
1000
0000
0001
0000
0000
0000
0000
0000
0010
0000
,
0000
0000
0001
0000
0000
1000
0000
0000
,
0100
0000
1000
0000
0100
0000
0000
0010
,
0000
0000
0001
0000
0000
0100
0000
0000
,
0010
0000
1000
0000
0001
0000
0000
0100
,
0000
0000
0010
0000
0000
1000
0000
0000
,
0100
0000
0010
0000
0100
0000
0000
0010
,
0000
0000
0001
0000
0000
1000
0000
0000
,
0010
0000
0100
0000
0001
0000
0000
0100
,
0000
0000
1000
0000
0000
0100
0000
0000
,
0001
0000
0010
0000
0100
0000
0000
0010
,
0000
0000
1000
0000
0000
0100
0000
0000
,
0010
0000
0001
0000
0100
0000
0000
0010
,
0000
0000
1000
0000
0000
0001
0000
0000
,
1000
0000
0100
0000
0010
0000
0000
0010
,
0000
0000
0001
0000
0000
1000
0000
0000
,
0010
0000
0100
0000
0200
0000
0000
0320
,
0000
0000
0230
0000
0000
0300
1000
0000
,
1000
1000
2000
0000
,
0000
0001
3002
0000
,
0000
0000
0003
0000
0100
0000
0000
0010
,
0000
0000
1000
0000
0001
0000
0000
0010
,
0000
0100
2000
0000
,
0000
0010
3020
0000
,
0000
0000
0000
0000
0130
0000
0000
0100
,
0000
0000
0010
0000
0010
0000
0000
0010
,
0000
1000
0000
0000
0200
0000
0000
0000
,
0000
0001
0302
0000
,
0000
0000
0000
0000
0013
0000
0000
0100
,
0000
0000
0001
0000
1000
0000
0000
0100
,
0000
0001
2000
0000
,
0000
0010
3020
0000
,
0000
0000
0000
0000
0031
0000
0000
1000
,
0000
0001
0100
0000
,
0010
1000
0000
0000
0002
0000
0000
0000
,
0000
0000
2003
0000
,
0000
0000
0000
0000
3010
0000
0000
0100
,
0000
0010
0000
0100
,
0001
1000
0002
0000
,
0000
0000
0000
0000
1003
0100
1000
0100
,
1000
0100
1000
0100
0010
0000
0000
0010
,
0000
0100
0000
1000
,
0001
1000
0002
0000
,
0000
0000
0203
0000
,
0302
0000
0000
0000
0013
0000
0000
0100
,
0000
0100
1000
0000
,
0100
1000
0020
0000
,
0000
0000
0000
0000
0130
0001
0100
0001
,
0100
0001
0100
0001
2000
0000
0000
0000
,
0000
0000
3002
1000
,
1000
0000
1000
0000
0013
0000
0000
0010
,
0000
0000
0100
0000
0100
0000
0000
0100
,
0000
0000
1000
0000
1000
0000
0000
0001
,
0000
0000
1000
0000
1000
0000
0000
0001
,
0000
0000
0010
0000
0010
0000
0000
0100
,
0000
0000
1000
0000
1000
0000
0000
0010
,
0000
0000
0100
0000
0100
0000
0000
0001
,
0000
0001
0002
0000
,
0000
0000
0003
0000
0100
0000
0000
0010
,
0000
0000
1000
0000
1000
0000
0000
0001
,
0000
0000
0010
0000
0010
0000
0000
0100
,
0000
0000
1000
0000
1000
0000
0000
0001
,
0000
0000
0100
0000
0100
0000
0000
0010
,
0000
0000
0001
0000
0001
0000
0000
0010
,
0000
0000
1000
0000
1000
0000
0000
0100
,
0000
0010
0020
0000
,
0000
0000
0032
0000
,
0000
0000
0000
0000
1003
0000
0000
0001
,
0000
1000
0020
0000
,
0000
0000
0000
0000
0130
0010
1000
0001
,
1001
0000
0000
0000
0100
0000
0000
0000
0010
0000
0000
0001
0000
0000
0001
0000
,
1001
0000
0000
0000
0001
0000
0000
0000
1000
0000
0000
1000
0000
0000
1000
0000
,
1001
0000
0000
0000
1000
0000
0000
0000
0100
0000
0000
0010
0000
0000
0001
0000
,
1001
0000
0000
0000
0000
0000
0000
0000
0001
0000
0000
0000
0000
0000
0000
0000
1000
0000
0000
0000
0000
0000
1000
0000
0000
0000
0000
0000
1000
0000
0000
0001
,
0000
0000
0000
0000
0000
0100
0000
0000
0000
0000
0000
0010
0000
0000
0000
0000
0000
1000
0000
0000
0000
0000
0000
0001
0000
0000
0000
1000
0000
0000
0000
0001
,
0000
0000
0000
0000
0000
0010
0000
0000
0000
0000
0000
0100
0000
0000
0000
0000
0000
1000
0000
0000
0000
0000
0000
0100
0000
0000
0000
1000
0000
0000
0000
0100
,
0000
0000
0000
0000
0000
0010
0000
0000
0000
0000
0000
0001
0000
0000
0000
0000
0000
0001
0000
0000
0000
0000
0000
1000
0000
0000
0000
0001
0000
0000
0000
1000
,
0000
0000
0000
0000
0000
0001
0000
0000
0000
0000
0000
0100
0000
0000
0000
0000
0000
0010
0000
0000
0000
0000
0000
1000
0000
0000
0000
0001
0000
0000
0000
0000
,
2000
0000
3200
0000
,
0310
0000
0000
0001
0000
0000
1000
0000
,
0001
0000
0000
0100
0000
0000
0010
0000
,
1000
0000
0000
0001
0000
0000
0010
0000
,
0100
0000
0000
1000
0000
0000
0100
0000
,
0001
0000
0000
1000
0000
0000
0010
0000
,
1000
0000
0000
1000
0000
0000
0001
0000
,
0100
0000
0000
0100
0000
0000
0001
0000
,
0020
1000
1000
1030
,
0100
0000
0000
0100
0000
0000
0010
0000
,
1000
0000
0000
1000
0000
0000
0001
0000
,
0010
0000
0000
0010
0000
0000
0100
0000
,
0001
0000
0000
0100
0000
0000
0001
0000
,
1000
0000
0000
1000
0000
0000
0001
0000
,
0010
0000
0000
0010
0000
0000
0100
0000
,
1000
0000
0000
1000
0000
0000
0001
0000
,
0200
0000
0000
0000
,
0320
0000
0000
0000
,
1030
0000
0000
1000
0000
0000
1000
0000
,
0002
0000
0000
0003
,
0100
0010
1000
0001
1001
0000
0001
0000
,
1000
0000
0000
0001
0000
0000
0001
0000
1001
0000
0000
0000
0010
0000
0000
0000
,
1001
0000
0000
1000
0000
0000
1000
0000
1000
0000
0000
0000
0100
0000
0000
0000
,
0010
0000
0000
0001
0000
0000
0001
0000
1001
0000
0000
0000
0100
0000
0000
0000
,
1001
0000
0000
0110
0000
0000
2002
0000
0000
0000
0000
0000
0000
0000
0000
0000
,
0000
0000
0000
0000
,
0000
0000
0000
0000
0000
0000
0000
3003
,
1100
0000
0000
0110
0000
0000
0011
0001
2000
0000
0000
0000
0000
0000
0000
0000
,
0000
0000
0000
3000
0000
0000
0000
0000
;

//--------------- dance-single - Magna Trick ----------------
#NOTEDATA:;
#STEPSTYPE:dance-single;
#DESCRIPTION:Magna Trick;
#DIFFICULTY:Hard;
#METER:16;
#RADARVALUES:0.770944,1.051901,0.805828,0.284889,0.231981,663,564,99,35,0,0,0,0,0,0.770944,1.051901,0.805828,0.284889,0.231981,663,564,99,35,0,0,0,0,0;
#CHARTNAME:Magna Trick;
#CHARTSTYLE:;
#CREDIT:Magna Trick;
#NOTES:
0000
0000
0000
0000
,
0000
0000
0000
0000
0000
0000
0000
0000
0001
0010
0001
0010
0001
0010
0001
0010
,
0100
1000
0100
1000
0100
1000
0100
1000
0001
0000
0000
0000
0000
0000
0000
0000
,
0000
0000
0000
1010
0000
0000
1100
0000
1010
0000
0000
0000
0000
0000
0000
0000
,
0011
0000
0000
0011
0000
0000
1001
0000
0011
0000
0000
0000
0000
0000
0000
0000
,
0000
0000
0000
1001
0000
0000
1010
0000
1100
0000
0000
0000
0000
0000
0000
0000
,
0101
0000
0000
0101
0000
0000
0101
0000
1000
0000
0000
0000
0001
0000
1000
0000
,
0000
0010
1000
0000
0001
1000
0000
0010
,
0100
0000
0001
0000
1000
0000
0100
0010
,
0000
0001
0010
0000
0100
0010
0000
0001
,
0100
0010
1000
0000
0100
0000
1000
0010
,
0000
1000
0100
0000
1000
0010
0000
1000
,
0100
0000
1000
0000
0010
0000
1000
0001
,
0000
0010
0100
0000
1000
0001
0000
1000
,
0100
0010
0001
0000
1000
0000
0001
0010
,
0000
0001
0100
0000
0001
0010
0000
0001
,
0100
0000
0010
0000
1000
0000
0100
0010
,
0000
0100
0001
0000
0100
0010
0000
0100
,
0001
0100
1000
0000
0100
0000
0010
0100
,
0000
0010
1000
0000
0010
0100
0000
0010
,
1000
0000
0010
0000
0001
0000
0100
0010
,
0000
1000
0100
0000
0010
0001
0000
1000
,
0001
0100
0010
0000
2020
0000
3030
0202
,
0000
0303
2002
0000
0000
3003
0100
0010
,
0100
0010
0100
0010
0002
0000
1000
0000
,
0100
0000
1003
0100
2000
0000
0100
0000
,
0010
0000
3001
0000
0010
0100
0000
0100
,
1000
0000
0001
0000
1100
0000
0000
0110
,
0000
0011
0102
1000
,
0010
0000
1003
0010
0200
0000
1000
0000
,
0010
0000
1000
0000
0310
1000
0000
1010
,
0000
0000
0100
0000
0101
0000
0000
1100
,
0000
0011
0000
0000
0020
0000
0100
0000
,
1000
0000
0031
0100
2000
0000
0010
0000
,
0100
0000
3010
0000
0001
1000
0000
1010
,
0000
0000
1100
0000
0011
0000
0000
0110
,
0000
1001
0102
0010
,
0100
0000
1003
0010
0200
0000
0010
0000
,
0001
0000
1300
0000
0010
0100
0000
1001
,
0000
0000
1100
0000
1000
0001
1000
0001
,
1000
0001
0010
0100
2000
0000
0010
0000
,
0100
0010
3002
0100
,
0010
0000
0100
0000
1003
0010
0000
1010
,
0000
0110
0000
1010
,
1001
0011
2001
0100
,
0010
0000
0100
0000
3001
0010
0100
1000
,
0001
0010
0100
1000
0001
0100
0000
0101
,
0000
0110
0000
1010
,
1100
0011
0201
1000
,
0001
1000
0320
0001
,
2030
0000
0010
0000
3100
0010
0000
0011
,
0000
0011
0101
0000
,
0011
0101
0210
1000
,
0010
0000
1000
0000
0310
1000
0001
0100
,
0010
1000
0001
0100
0020
0000
0000
0000
,
0000
0000
0000
0000
2030
0000
3001
0100
,
0001
0100
0001
0100
0010
0000
1000
0100
,
0000
0010
0001
0100
0010
0000
1000
0100
,
0000
0010
0001
0100
0010
0000
1000
0100
,
0000
1000
0001
0000
1001
0000
0001
0100
,
0000
0010
0100
0000
1010
0000
1000
0100
,
0000
0010
0001
0000
0101
0000
0100
0010
,
0000
1000
0001
0000
0110
0000
1000
0100
,
0000
0010
0100
0000
2000
0000
0000
0000
,
0000
0000
3000
0000
0010
0000
0100
1000
,
0000
0100
0001
0010
0100
0000
1000
0100
,
0000
0010
0001
0100
0010
0000
1000
0100
,
0000
0010
0001
0000
0011
0000
0100
1000
,
0000
0010
0100
0000
0110
0000
0001
0100
,
0000
0010
1000
0000
1100
0000
0100
0010
,
0000
0001
1000
0000
0101
0000
1000
0010
,
0000
0001
0100
0000
0210
0000
0010
0000
,
0010
0010
2300
0010
,
0000
0000
0001
0000
3100
0000
0000
1000
,
0000
0001
0200
0010
,
0000
0000
0000
0000
0010
0000
0300
0000
1000
0010
1000
0010
0100
0001
0100
0001
,
1001
0000
0000
0000
0010
0000
0000
0000
0100
0000
0000
1100
0000
0000
1010
0000
,
1001
0000
0000
0000
1000
0000
0000
0000
0011
0000
0000
0101
0000
0000
0110
0000
,
1001
0000
0000
0000
0001
0000
0000
0000
0010
0000
0000
1100
0000
0000
1010
0000
,
1001
0000
0000
0000
0000
0000
0000
0000
0100
0000
0000
0000
0000
0000
0000
0000
1001
0000
0000
0000
0000
0000
0011
0000
0000
0000
0000
0000
0101
0000
0000
1000
,
0000
0000
0000
0010
0000
0100
0000
0000
0000
0100
0000
0001
0000
0000
0000
0001
0000
1000
0000
0000
0000
1000
0000
0100
0000
0000
0000
0100
0000
0000
0000
0100
,
0000
0000
0000
0010
0000
0001
0000
0000
0000
0001
0000
1000
0000
0000
0000
1000
0000
0010
0000
0000
0000
0010
0000
0001
0000
0010
0000
1000
0000
0001
0000
0010
,
0000
0000
0000
0100
0000
1000
0000
0000
0000
1000
0000
0100
0000
0000
0000
0100
0000
0001
0000
0000
0000
0001
0000
0010
0000
0000
0000
0010
0000
0000
0000
0010
,
0000
0000
0000
1000
0000
0001
0000
0000
0000
0001
0000
1000
0000
0000
0000
1000
0000
0100
0000
0000
0000
0100
0000
0010
0000
0001
0000
0010
0000
0100
0000
0000
,
2000
0000
0000
0010
0000
0000
0010
0000
3020
0000
1030
0001
1000
0001
1000
0001
,
0100
0000
0010
1000
0000
0001
1000
0100
,
0010
0000
0001
0010
0000
0100
0010
0001
,
1000
0000
0010
1000
0000
0001
0100
0000
,
0110
0000
0010
1000
0000
1000
0001
0000
,
1001
0000
1000
0010
0000
0010
0100
0000
,
0101
0000
0001
0010
0000
0010
0100
0000
,
0110
0000
1000
0100
0000
0010
0001
0000
,
1001
0000
1000
0001
1000
0001
1000
0010
,
0100
0000
0001
0010
0000
0100
1000
0001
,
0010
0000
0100
1000
0000
0001
0010
0100
,
1000
0000
0100
0010
0000
0001
1000
0000
,
1001
0000
0001
0010
0000
0010
0100
0000
,
0110
0000
0010
0001
0000
0001
1000
0000
,
1100
0000
0100
1000
0000
1000
0001
0000
,
1001
0000
1000
0001
0000
0001
1000
0000
,
0020
1000
0001
1000
0000
0000
0000
0000
,
0230
0010
0000
0010
,
0301
0000
0000
0011
0000
0000
0110
0000
,
2100
0001
0000
3001
,
0010
0100
0010
0100
1000
0001
1000
0001
0110
0000
0000
0000
1000
0000
0000
0000
,
0001
0000
0000
0101
0000
0000
0011
0000
1001
0000
0000
0000
0100
0000
0000
0000
,
1001
0000
0000
1010
0000
0000
0101
0000
0110
0000
0000
0000
0010
0000
0000
0000
,
0100
0000
0000
1100
0000
0000
1010
0000
1001
0000
0000
0000
0010
0000
0000
0000
,
1001
0000
0000
0110
0000
0000
2002
0000
0000
0000
0000
0000
0000
0000
0000
0000
,
0000
0000
0000
0000
,
0000
0000
0000
0000
0000
0000
0000
0000
0000
0000
0000
0000
0000
0000
3003
0010
,
0001
0010
1000
0001
0100
1000
0010
1000
0002
0000
0000
0000
0000
0000
0000
0000
,
0000
0000
0000
0003
0000
0000
0000
0000
;

//--------------- dance-single - Magna Trick ----------------
#NOTEDATA:;
#STEPSTYPE:dance-single;
#DESCRIPTION:Magna Trick;
#DIFFICULTY:Challenge;
#METER:19;
#RADARVALUES:0.96397,1.875127,1.058158,0.276749,0.488381,829,699,130,34,0,0,0,0,0,0.96397,1.875127,1.058158,0.276749,0.488381,829,699,130,34,0,0,0,0,0;
#CHARTNAME:Magna Trick;
#CHARTSTYLE:;
#CREDIT:Magna Trick;
#NOTES:
0000
0000
0000
0000
,
0000
0000
0000
0000
0000
0000
0000
0000
1000
0100
0010
0001
0100
0010
1000
0100
,
0010
0000
0001
0000
1000
0000
0100
0000
0000
0010
0000
0000
0001
0000
0000
0010
0000
0000
0100
0000
1000
0000
0001
0000
0110
0000
0000
0000
0000
0000
0001
0000
0000
1000
0000
0000
0001
0000
0000
1000
0000
0000
0001
0000
0000
1000
0000
0000
,
0001
1000
0010
0101
1000
0100
0011
1000
0101
0000
1000
0010
1000
0010
1000
0010
,
1100
0000
0001
0000
0010
0000
0001
0000
0000
1100
0000
0000
0001
0000
0000
0010
0000
0000
1001
0000
0000
1001
0000
0000
1100
0000
0000
0000
0000
0000
0100
0000
0000
0010
0000
0000
0100
0000
0000
0010
0000
0000
0100
0000
0000
0010
0000
0000
,
0100
0010
0100
1001
0010
1000
0101
1000
0011
0000
0001
0010
0001
0010
0001
0010
,
1100
0001
0100
1010
0100
0001
1010
0100
1001
0000
0000
0000
1000
0000
0001
0000
,
0000
0100
0001
0000
1000
0001
0000
0100
,
0010
0000
1100
0000
0011
0000
0010
0100
,
0000
1000
0100
0000
0010
0100
0000
1000
,
0010
0100
0001
0000
0110
0000
0001
0100
,
0000
0001
0010
0000
0001
0100
0000
0001
,
0010
0000
0011
0000
1100
0000
0001
1000
,
0000
0100
0010
0000
0001
1000
0000
0001
,
0010
0100
1000
0000
1000
0010
0001
1000
,
0100
0001
1000
0010
0001
1000
0100
0001
,
1000
0010
0001
0010
1000
0100
0001
1000
,
0010
0001
1000
0100
0001
1000
0010
0001
,
1000
0001
1000
0010
0001
1000
0100
0001
,
1000
0010
0001
1000
0100
0001
1000
0010
,
0001
1000
0100
1000
0100
0001
0010
1000
,
0001
0100
1000
0001
0010
1000
0001
0100
,
1000
0010
0100
0000
0202
0000
0303
2020
,
0000
3030
2002
0000
0000
3003
0010
0010
,
0010
0010
0010
0010
2000
0000
0001
0000
,
0010
0000
3001
0010
0002
0000
0010
0000
,
0100
0000
1003
0000
0100
0010
0000
0010
,
0001
0000
1000
0000
0011
0000
0000
0110
,
0000
1100
2010
0001
,
0100
0000
3001
0100
0020
0000
0001
0000
,
0100
0000
0001
0000
0130
0001
0000
0101
,
0000
0000
0010
0000
1010
0000
0000
0011
,
0000
1100
0000
0000
0200
0000
0010
0000
,
0001
0000
1300
0010
0002
0000
0100
0000
,
0010
0000
0103
0000
1000
0001
0000
0101
,
0000
0000
0011
0000
1100
0000
0000
0110
,
0000
1001
2010
0100
,
0010
0000
3001
0100
0020
0000
0100
0000
,
1000
0000
0031
0000
0100
0010
0000
1001
,
0000
0000
0011
0000
1000
1000
1000
1000
,
1000
1000
0100
0010
0002
0000
0100
0000
,
0010
0100
2003
0010
,
0100
0000
0010
0000
3001
0100
0000
0101
,
0000
0110
0000
0101
,
1001
1100
1002
0010
,
0100
0000
0010
0000
1003
0100
0010
0001
,
1000
0100
0010
0001
1000
0010
0000
1010
,
0000
0110
0000
0101
,
0011
1100
1020
0001
,
1000
0001
0230
1000
,
0302
0000
0100
0000
0013
0100
0000
1100
,
0000
1100
1010
0000
,
1100
1010
0120
0001
,
0100
0000
0001
0000
0130
0001
1000
0010
,
0100
0001
1000
0010
0200
0000
0000
0010
,
0000
0000
0001
0000
0301
1000
1000
0001
,
0001
1000
1000
0001
0101
0000
0001
0010
,
0000
0100
1000
0010
0110
0000
0001
0010
,
0000
0100
1000
0010
0110
0000
0001
0010
,
0000
0001
1000
0000
1001
0000
1000
0010
,
0000
0100
0010
0000
0101
0000
0001
0010
,
0000
0100
1000
0000
1010
0000
0010
0100
,
0000
0001
1000
0000
0110
0000
0001
0010
,
0000
0100
0010
0000
0002
0000
0000
0000
,
0000
0000
0003
0000
0110
0000
0010
0001
,
0000
0010
1000
0100
0110
0000
0001
0010
,
0000
0100
1000
0010
0110
0000
0001
0010
,
0000
0100
1000
0000
1100
0000
0010
0001
,
0000
0100
0010
0000
0110
0000
1000
0010
,
0000
0100
0001
0000
0011
0000
0010
0100
,
0000
1000
0001
0000
1010
0000
0001
0100
,
0000
1000
0010
0000
0120
0000
0100
0000
,
0100
0100
0032
0100
,
0000
0000
1000
0003
0110
0000
0000
0011
,
0000
1100
0020
0100
,
0000
0000
0000
0000
0100
0000
0030
0000
0001
0100
0001
0100
0010
1000
0010
1000
,
1001
0000
1000
0100
1000
0100
1000
0100
1000
0100
1000
0011
0000
0000
0101
0000
,
1001
0000
0001
0100
0001
0100
0001
0010
1100
0001
0100
1010
0001
1000
0101
0101
,
1001
0000
1000
0001
1000
0001
1000
0001
1000
0001
1000
0011
0000
0000
0101
0000
,
1001
0000
0000
0000
0100
0000
0010
0000
0100
0000
0010
0000
0100
0000
0010
0000
1001
0000
0000
0000
0000
0000
1100
0000
0000
0000
0000
0000
1010
0000
0000
0001
,
0000
0000
0000
0100
0000
0010
0000
0000
0000
0010
0000
1000
0000
0000
0000
1000
0000
0001
0000
0000
0000
0001
0000
0010
0000
0000
0000
0010
0000
0000
0000
0010
,
0000
0000
0000
0100
0000
1000
0000
0000
0000
1000
0000
0001
0000
0000
0000
0001
0000
0100
0000
0000
0000
0100
0000
1000
0000
0100
0000
0001
0000
1000
0000
0100
,
0000
0000
0000
0010
0000
0001
0000
0000
0000
0001
0000
0010
0000
0000
0000
0010
0000
1000
0000
0000
0000
1000
0000
0100
0000
0000
0000
0100
0000
0000
0000
0100
,
0000
0000
0000
0001
0000
1000
0000
0000
0000
1000
0000
0001
0000
0000
0000
0001
0000
0010
0000
0000
0000
0010
0000
0100
0000
1000
0000
0100
0000
0010
0000
0000
,
0012
0000
0000
0100
0000
0000
0100
0000
0203
0000
0301
1000
0001
1000
0001
1000
,
1010
0000
0100
0001
0000
1000
0001
0010
,
0110
0000
1000
0100
0000
0010
0100
1000
,
1001
0000
0100
0001
0000
1000
0010
0000
,
0110
0000
0100
0001
0000
0001
1000
0000
,
1001
0000
0001
0100
0000
0100
0010
0000
,
1010
0000
1000
0100
0000
0100
0010
0000
,
0110
0000
0001
0010
0000
0100
1000
0000
,
1001
0000
0001
0001
0001
0001
0001
0100
,
0110
0000
1000
0100
0000
0010
0001
1000
,
1100
0000
0010
0001
0000
1000
0100
0010
,
0011
0000
0010
0100
0000
1000
0001
0000
,
1001
0000
1000
0100
0000
0100
0010
0000
,
0110
0000
0100
1000
0000
1000
0001
0000
,
0011
0000
0010
0001
0000
0001
1000
0000
,
1001
0000
0001
1000
0000
1000
0001
0000
,
0200
0001
1000
0001
0000
0000
0000
0000
,
0320
0100
0000
0100
,
1030
0000
0000
1100
0000
0000
0110
0000
,
0012
1000
0000
1003
,
0100
0010
0100
0010
0001
1000
0001
1000
0110
0000
0001
0010
0001
0010
0001
0010
,
0001
0010
0001
1010
0000
0000
1100
0000
1001
0000
1000
0010
1000
0010
1000
0010
,
1001
0010
1000
0101
1000
0001
1010
1010
0110
0000
0001
1000
0001
1000
0001
1000
,
0001
1000
0001
1010
0000
0000
0101
0000
1001
0000
0010
0100
0010
0100
0010
0100
,
1001
1000
1000
0110
0010
0010
2002
0000
0000
0000
0000
0000
0000
0000
0000
0000
,
0000
0000
0000
0000
,
0000
0000
0000
0000
0000
0000
0000
0000
0000
0000
0000
0000
0000
0000
3003
0100
,
1010
0100
0001
1100
0010
0001
0110
0011
2100
0000
0000
0000
0000
0000
0000
0000
,
0000
0000
0000
3000
0000
0000
0000
0000
;
