#TITLE:Willy Use A Billy... Boy;
#SUBTITLE:(KCP Remix);
#ARTIST:E-Rotic;
#TITLETRANSLIT:;
#SUBTITLETRANSLIT:;
#ARTISTTRANSLIT:;
#CREDIT:;
#BANNER:Willy Use a Billy... Boy (KCP Remix)-bn.png;
#BACKGROUND:Willy Use a Billy... Boy (KCP Remix)-bg.png;
#LYRICSPATH:;
#CDTITLE:Dance Mania Speed.png;
#MUSIC:Willy Use A Billy...Boy (KCP Remix).mp3;
#OFFSET:-5.717;
#SAMPLESTART:69.440;
#SAMPLELENGTH:12.000;
#SELECTABLE:YES;
#DISPLAYBPM:170.000;
#BPMS:0.000=170.000;
#STOPS:;
#BGCHANGES:;

//---------------dance-single - ----------------
#NOTES:
     dance-single:
     :
     Medium:
     6:
     0.490,0.492,0.290,0.197,0.000: // measure 1
1000
0010
0100
0000
,  // measure 2
0100
0010
1000
0000
,  // measure 3
0001
1000
0010
1000
,  // measure 4
0001
1000
0000
0001
1000
0001
0000
1000
,  // measure 5
0010
0000
0000
1000
0000
0000
0000
0001
,  // measure 6
1000
0000
0000
1010
0000
0000
0000
0000
,  // measure 7
0001
0000
0100
0010
0000
0100
0010
0100
,  // measure 8
0000
0001
0000
1000
0000
0010
0000
1000
,  // measure 9
0010
0000
0000
1001
0000
0000
0000
0001
,  // measure 10
1000
0000
0000
1001
0000
0000
0000
0000
,  // measure 11
0001
0000
1000
0010
0000
0100
0000
0010
,  // measure 12
0000
1000
1000
0001
,  // measure 13
0001
1000
0010
1000
,  // measure 14
0001
1000
0010
0000
0010
0000
0010
0000
,  // measure 15
1000
0001
0100
0010
,  // measure 16
0100
0010
0100
0001
1000
0000
0010
0000
,  // measure 17
1010
0101
0110
0010
,  // measure 18
0100
0010
0100
0001
1000
0010
1000
0000
,  // measure 19
0001
1000
0010
0100
,  // measure 20
0110
1001
0110
1001
,  // measure 21
0000
0000
0001
0000
0001
0000
1000
0001
,  // measure 22
2000
0000
0010
0000
3001
0000
0001
1000
,  // measure 23
0020
0000
0100
0000
1030
0000
0100
0010
,  // measure 24
0100
0000
0110
0000
1001
0000
0010
1000
,  // measure 25
0010
0100
0001
1000
,  // measure 26
0002
0000
0100
0000
0013
0000
1000
0001
,  // measure 27
0020
0000
0100
0000
0031
1000
0010
0100
,  // measure 28
0001
0000
1000
0000
0010
1000
0000
0001
,  // measure 29
0000
1000
0010
0000
1000
0001
1000
0000
,  // measure 30
0100
0000
0000
0001
0000
0000
0000
1000
,  // measure 31
0001
0000
0000
0101
0000
0000
0000
0000
,  // measure 32
1000
0000
0010
0100
0000
0010
0100
0010
,  // measure 33
0000
1000
0000
0001
0000
0100
0000
0001
,  // measure 34
0100
0000
0000
1001
0000
0000
0000
1000
,  // measure 35
0001
0000
0000
1001
0000
0000
0000
0000
,  // measure 36
1000
0000
0001
0100
0000
0010
0000
0100
,  // measure 37
0000
0001
0001
1000
,  // measure 38
1000
0001
0100
0001
,  // measure 39
1000
0001
0100
0000
0100
0000
0100
0000
,  // measure 40
0001
1000
0010
0100
,  // measure 41
0010
0100
0010
1000
0001
0000
0100
0000
,  // measure 42
0101
1010
0110
0100
,  // measure 43
0010
0100
0010
1000
0001
0100
0001
0000
,  // measure 44
1000
0001
0100
0010
,  // measure 45
0110
1001
0110
1001
,  // measure 46
0000
0000
1000
0000
1000
0000
0001
1000
,  // measure 47
0002
0000
0100
0000
1003
0000
1000
0001
,  // measure 48
0200
0000
0010
0000
0301
0000
0010
0100
,  // measure 49
0010
0000
0110
0000
1001
0000
0100
0001
,  // measure 50
0100
0010
1000
0001
,  // measure 51
2000
0000
0010
0000
3100
0000
0001
1000
,  // measure 52
0200
0000
0010
0000
1300
0001
0100
0010
,  // measure 53
1000
0000
0001
0000
0100
0001
0000
1000
,  // measure 54
0000
0001
0100
0000
0001
1000
0001
0000
,  // measure 55
2000
0000
0010
0000
3001
0000
1000
0010
,  // measure 56
2000
0000
0010
3000
0100
0000
0001
0100
,  // measure 57
0020
0000
2030
0000
3002
0000
0013
0100
,  // measure 58
0020
0000
0001
0000
0130
0000
1000
0010
,  // measure 59
2000
0000
3002
0000
0013
0000
0100
1000
,  // measure 60
0002
0000
2003
0000
3010
0000
0100
0001
,  // measure 61
0200
0000
0310
0000
1000
0001
0000
1000
,  // measure 62
0000
0010
1000
0000
0010
1000
0010
0000
,  // measure 63
1001
0000
0010
1000
0000
0000
0000
0000
,  // measure 64
1001
0000
0001
0010
0000
0000
0000
0000
,  // measure 65
1001
0000
0010
0100
0000
0010
0100
0010
,  // measure 66
0000
1010
0000
0101
0000
1010
0000
0001
,  // measure 67
1000
0000
0010
0200
0000
0301
0000
0100
,  // measure 68
0010
0000
1000
0002
0000
1003
0000
0010
,  // measure 69
1000
0000
0001
0100
0000
0010
0000
1000
,  // measure 70
0001
1000
0000
0001
1000
0001
0000
1000
,  // measure 71
1001
0000
0000
0000
;

//---------------dance-single - ----------------
#NOTES:
     dance-single:
     :
     Easy:
     4:
     0.321,0.328,0.309,0.103,0.000:
1000
1000
1000
0000
,
0001
0001
0001
0000
,
1000
0010
0100
0001
,
1001
0000
0110
0000
,
0001
0000
1000
0000
,
0010
0000
0100
0000
,
0010
0000
0100
0000
,
0100
0100
0010
0010
,
0100
0000
0001
0000
,
1000
0000
0010
0000
,
0100
0001
1000
0010
,
0200
0000
0010
0010
,
0310
0000
0010
0000
,
0100
0100
0010
0100
,
0010
0000
0100
0000
,
0001
0001
1000
0010
,
1010
0000
0101
0000
,
0010
0010
0100
0010
,
1001
0000
1100
0000
,
0001
0001
1000
0010
,
2000
0000
0001
0001
,
3001
0000
0001
1000
,
0010
0000
1000
0010
,
1000
0000
0001
0000
,
1000
1000
0001
1000
,
1001
0000
0010
0100
,
0110
0000
0010
1000
,
0002
0000
2003
0000
,
3010
0010
0100
0010
,
1000
0000
0000
0000
,
1001
0000
0000
0000
,
0110
0000
0000
0000
,
0010
0010
0100
0100
,
0110
0000
0010
0000
,
0100
0000
0100
0000
,
0001
1000
0010
1000
,
0002
0000
1000
1000
,
1003
0000
0001
0000
,
1000
0010
0100
0001
,
1000
0000
0001
0000
,
0010
0100
1000
0010
,
1010
0000
0101
0000
,
0001
0001
1000
0001
,
1001
0000
0011
0000
,
0100
0100
1000
0010
,
1001
0000
0001
1000
,
1001
0000
0010
0100
,
0110
0000
1000
0001
,
0101
0000
1010
0000
,
0010
0010
0100
0001
,
1001
0000
0001
0010
,
0110
0000
0100
1000
,
1010
0000
0101
0000
,
0001
0001
1000
0010
,
1100
0000
0100
0010
,
0011
0000
0001
1000
,
0020
0000
0230
0000
,
0310
0010
0100
0010
,
1001
0000
0001
1000
,
1001
0000
0010
0100
,
0110
0000
1001
0000
,
0001
0001
1000
0010
,
1000
0000
0100
0000
,
0001
0000
0100
0000
,
1000
0000
0010
0000
,
1000
1000
0001
0001
,
2002
0000
3003
0000
,
0220
0000
0330
0000
,
0001
0001
1000
0010
,
1000
0000
0001
0000
,
1001
0000
0000
0000
;

//---------------dance-single - ----------------
#NOTES:
     dance-single:
     :
     Hard:
     9:
     0.693,0.592,0.440,0.309,0.028: // measure 1
2000
3020
0130
1001
,  // measure 2
0002
0203
0310
1010
,  // measure 3
2000
0000
3001
0000
0100
0010
0100
0010
,  // measure 4
0100
0010
0000
0100
0010
0100
0000
0001
,  // measure 5
1000
0010
1000
0020
0000
1030
0000
0010
,  // measure 6
1000
0010
0100
0002
0000
0103
0000
0100
,  // measure 7
0010
0100
0010
0100
0000
0010
1000
0010
,  // measure 8
0000
1010
0000
0101
0000
0110
0000
0001
,  // measure 9
1000
0001
1000
0020
0000
0130
0000
0001
,  // measure 10
0100
0010
0100
0002
0000
0103
0000
0010
,  // measure 11
1000
0001
1000
0001
0000
0110
0000
0010
,  // measure 12
1000
0001
0010
1001
,  // measure 13
1100
0000
0000
0000
0011
0000
0000
1001
0000
0000
0010
0000
1000
0000
0100
0000
,  // measure 14
0010
0000
0001
0000
1000
0000
0010
0000
0100
0010
0000
1000
0000
0000
0010
0000
,  // measure 15
1000
0001
0100
0010
0100
0001
0010
0001
,  // measure 16
0010
0100
0010
0001
0020
0000
0031
0000
,  // measure 17
0011
0000
0000
0000
0110
0000
0000
1001
0000
0000
0010
0000
0100
0000
0010
0000
,  // measure 18
1000
0001
1000
0010
0100
0001
1000
0001
,  // measure 19
1000
0100
0010
0001
1000
0010
0100
0001
,  // measure 20
0100
0001
0100
0010
0100
0001
1000
0000
,  // measure 21
0000
0010
1000
0001
0100
0001
0100
0010
,  // measure 22
1000
1020
0000
1030
0000
0100
1000
0001
,  // measure 23
1000
0002
0000
0013
0000
0001
0100
0010
,  // measure 24
0110
0000
1001
0000
0001
0010
0100
1000
,  // measure 25
0010
1000
0010
1000
0010
0100
0001
0100
,  // measure 26
0001
0010
0000
1002
0000
0013
0100
1000
,  // measure 27
0001
0020
0000
0130
0000
0010
0001
1000
,  // measure 28
0020
0000
0130
0000
0001
0200
0000
0301
,  // measure 29
0000
0001
1000
0001
1000
0001
0010
0100
,  // measure 30
1000
0000
0010
0200
0000
0001
0301
0000
,  // measure 31
0010
0000
0001
2000
0000
0010
3010
0000
,  // measure 32
1001
0000
0010
0200
0000
0301
1000
0010
,  // measure 33
0000
0101
0000
0110
0000
1001
0000
0100
,  // measure 34
1000
0001
1000
0001
1000
0000
1010
0000
,  // measure 35
0100
0010
0100
0010
0100
0000
0101
0000
,  // measure 36
0001
1000
0010
0100
0001
0000
0110
0000
,  // measure 37
2001
0010
0010
3010
,  // measure 38
0110
0000
0000
0000
1001
0000
0000
0110
0000
0000
0001
0000
1000
0000
0010
0000
,  // measure 39
0100
0100
0001
0001
1000
1000
0010
0000
,  // measure 40
0010
1000
0100
1000
0010
0100
0001
1000
,  // measure 41
0001
0001
0010
0001
0101
0000
0110
0000
,  // measure 42
1001
0000
0000
0000
0011
0000
0000
1100
0000
0000
0100
0000
0100
0000
1000
0000
,  // measure 43
0001
0001
1000
0100
0100
0010
0010
0001
,  // measure 44
1000
0100
1000
0100
0010
0001
0010
0001
,  // measure 45
0100
0100
0010
1000
0001
1000
0010
0000
,  // measure 46
0000
0100
0001
1000
0010
1000
0010
0100
,  // measure 47
0001
0201
0000
0301
0000
0010
0001
1000
,  // measure 48
0001
2000
0000
3100
0000
1000
0010
0100
,  // measure 49
0110
0000
1001
0000
1000
0100
0010
0001
,  // measure 50
0100
0001
0100
0001
0100
0010
1000
0010
,  // measure 51
1000
0100
0000
2001
0000
3100
0010
0001
,  // measure 52
1000
0200
0000
0310
0000
0100
1000
0001
,  // measure 53
0200
0000
0310
0000
1000
0020
0000
0130
,  // measure 54
0000
1000
0001
1000
0001
1000
0100
0010
,  // measure 55
0001
1000
0100
1000
0100
0010
0001
0010
,  // measure 56
0001
1000
0100
0010
0001
1000
0001
1000
,  // measure 57
1001
0000
0110
0000
1001
0010
0100
0001
,  // measure 58
1000
0100
1000
0001
1000
0001
0010
0001
,  // measure 59
0010
0100
1000
0010
0100
0001
1000
0001
,  // measure 60
0100
1000
0100
0001
0100
1000
0100
0001
,  // measure 61
1010
0000
0101
0000
2000
0001
0000
3100
,  // measure 62
0000
0010
1000
0000
0010
0010
1000
0000
,  // measure 63
0001
1000
0001
0200
0000
0310
0000
1000
,  // measure 64
0010
0100
0010
2000
0000
3010
0000
0100
,  // measure 65
0001
1000
0001
1000
0000
0010
0100
0001
,  // measure 66
0000
1100
0000
0011
0000
1001
0000
1000
,  // measure 67
0100
0010
0100
2000
0000
3001
0000
0010
,  // measure 68
0001
1000
0001
0020
0000
0031
0000
1000
,  // measure 69
0100
0010
0100
0010
0000
1001
0000
1000
,  // measure 70
0100
0010
0000
0010
0100
1000
0000
0100
,  // measure 71
2002
3003
0000
0000
;

//---------------dance-solo - ----------------
#NOTES:
     dance-solo:
     :
     Beginner:
     3:
     0.170,0.304,0.094,0.000,0.000:
000000
000000
000000
000000
,
000000
000000
000000
000000
,
000000
000000
000000
000000
,
000000
000000
000000
000000
,
000000
000000
000000
000000
,
000000
000000
000000
000000
,
000000
000000
000000
000000
,
000000
000000
000000
000000
,
010000
000000
000000
000000
,
000000
000000
000000
000000
,
001000
000000
000000
000000
,
000000
000000
000000
000000
,
010000
001000
000000
000000
,
001000
010000
000000
000000
,
000010
001000
000000
000000
,
001000
000010
000000
000000
,
001000
010000
000000
000000
,
001000
000010
000000
000000
,
000010
001000
000000
000000
,
010000
001000
000000
000000
,
000010
001000
000000
000000
,
010000
001000
000000
000000
,
010010
001000
000000
000000
,
001000
010010
000000
000000
,
001000
000000
010010
000000
,
001000
000000
010010
000000
,
001000
000000
000010
000000
,
001000
000000
010000
000000
,
001000
000000
010010
000000
,
001000
000000
010010
000000
,
001000
000000
010000
000000
,
001000
000010
001000
010000
,
000000
000000
000000
000000
,
000010
010000
000000
000000
,
001000
000010
000000
000000
,
000010
001000
000000
000000
,
010000
001000
000000
000000
,
000010
001000
000000
000000
,
010000
001000
000000
000000
,
001000
001000
000000
000000
,
010010
001000
001000
010010
,
000000
000000
000000
000000
,
001000
001000
000010
010000
,
000010
000000
000000
000000
,
001000
000000
000000
000000
,
000010
001000
000000
000000
,
000010
001000
000000
000000
,
010000
001000
000000
000000
,
001000
010000
000000
000000
,
000010
010000
000000
000000
,
001000
000010
000000
000000
,
000010
001000
000000
000000
,
010000
001000
000000
000000
,
000010
001000
000000
000000
,
010000
001000
000000
000000
,
001000
001000
000000
000000
,
001000
000010
010000
001000
,
000000
000000
000000
000000
,
001000
001000
001000
010010
,
001000
001000
000000
000000
,
001000
010000
000000
000000
,
001000
001000
000000
000000
,
001000
001000
001000
010010
,
001000
001000
010000
000010
,
010000
001000
010000
000010
,
010000
000000
000000
000000
;

//---------------dance-solo - ----------------
#NOTES:
     dance-solo:
     :
     Easy:
     3:
     0.189,0.304,0.225,0.000,0.000:
000000
000000
000000
000000
,
000000
000000
000000
000000
,
000000
000000
000000
000000
,
000000
000000
000000
000000
,
000000
000000
000000
000000
,
000000
000000
000000
000000
,
000000
000000
000000
000000
,
000000
000000
000000
000000
,
100000
000000
000000
000000
,
000000
000000
000000
000000
,
010000
000000
000000
000000
,
000000
000000
000000
000000
,
100000
010000
000000
000000
,
010000
100000
000000
000000
,
000001
000010
000000
000000
,
000010
000001
000000
000000
,
000001
000000
010000
000000
,
100000
000000
000010
000000
,
000001
001100
000000
000000
,
100000
001100
000000
000000
,
000001
001000
000000
000000
,
100000
001000
000000
000000
,
100001
001100
000000
000000
,
001100
100001
000000
000000
,
000001
000000
100001
000000
,
100000
000000
100001
000000
,
001100
000000
000010
000000
,
001100
000000
010000
000000
,
010010
000000
100001
000000
,
010010
000000
001100
000000
,
000001
000000
100000
000000
,
000010
000001
010000
100000
,
000000
000000
000000
000000
,
000001
010000
000000
000000
,
100000
000010
000000
000000
,
000001
001100
000000
000000
,
100000
001100
000000
000000
,
000001
001000
000000
000000
,
100000
001000
000000
000000
,
000100
001000
000000
000000
,
100001
000100
001000
100001
,
000000
000000
000000
000000
,
000100
001000
000010
010000
,
000001
000000
000000
000000
,
000010
000000
000000
000000
,
000001
000010
000000
000000
,
000010
000001
000000
000000
,
100000
010000
000000
000000
,
010000
100000
000000
000000
,
000001
010000
000000
000000
,
100000
000010
000000
000000
,
000001
001100
000000
000000
,
100000
001100
000000
000000
,
000001
001000
000000
000000
,
100000
001000
000000
000000
,
000100
001000
000000
000000
,
001100
000001
100000
001100
,
000000
000000
000000
000000
,
000100
001000
000010
100001
,
100000
010000
000000
000000
,
010000
100000
000000
000000
,
100000
010000
000000
000000
,
000100
001000
010000
100001
,
100000
010000
100000
000001
,
100000
010000
100000
000001
,
010000
000000
000000
000000
;

//---------------dance-solo - ----------------
#NOTES:
     dance-solo:
     :
     Medium:
     5:
     0.281,0.335,0.281,0.000,0.000:
000000
000000
000000
000000
,
000000
000000
000000
000000
,
000000
000000
000000
000000
,
000000
000000
000000
000000
,
000000
000000
000000
000000
,
000000
000000
000000
000000
,
000000
000000
000000
000000
,
000000
000000
000000
000000
,
100000
000000
001000
000000
,
001000
000000
000001
000000
,
000001
000000
000100
000000
,
000100
000000
100000
000000
,
100000
000000
001001
000000
,
000001
000000
100100
000000
,
000001
000000
101000
000000
,
100000
000000
000101
000000
,
000011
000000
001000
000000
,
001001
000000
000101
000000
,
110000
000000
001000
000000
,
101000
000000
100100
000000
,
000011
000000
110000
000000
,
000101
000000
100100
000000
,
110000
000000
000011
000000
,
100100
000000
000101
000000
,
100000
000100
100000
000100
,
100000
000100
100000
001100
,
000001
000100
000001
000100
,
000001
000100
000001
001100
,
100000
001000
100000
001000
,
100000
001000
100000
001100
,
000001
001000
000001
001000
,
000001
100000
010010
001100
,
000000
000000
100000
000000
,
100000
001000
001000
000001
,
000001
000000
000100
000000
000100
000001
100000
000000
,
100000
000100
000100
000001
,
000001
000000
001000
000000
001000
000001
010000
000000
,
010000
000001
000001
000010
,
000010
000000
100000
000000
100000
000001
001000
000000
,
001100
000100
000000
000000
,
000001
000010
000001
001000
,
000000
000000
000000
000000
,
100000
000100
010000
000000
000001
000100
000010
000000
,
100000
100000
000001
000001
,
010000
000000
000010
000000
,
000001
000000
101000
000000
,
100000
000000
000101
000000
,
100000
000000
001001
000000
,
000001
000000
100100
000000
,
100000
001000
001000
000001
,
000001
000000
000100
000000
000100
000010
100000
000000
,
100000
000100
000100
000001
,
000001
000000
001000
000000
001000
000010
010000
000000
,
010000
000001
000001
000010
,
000010
000000
100000
000000
100000
000010
001000
000000
,
001100
000100
000000
000000
,
000001
000010
000001
001000
,
000000
000000
000000
000000
,
100000
000100
010000
000000
000001
000100
000010
000000
,
010000
100000
000010
000001
,
100000
000000
010000
000000
,
000001
000000
000010
000000
,
000001
000100
000010
000000
100000
000100
010000
000000
,
000010
000001
010000
100000
,
000001
000010
100000
010000
,
001100
000000
000000
000000
;

//---------------dance-solo - ----------------
#NOTES:
     dance-solo:
     :
     Hard:
     7:
     0.353,0.517,0.197,0.000,0.000:
000000
000000
000000
000000
,
000000
000000
000000
000000
,
000000
000000
000000
000000
,
000000
000000
000000
000000
,
000000
000000
000000
000000
,
000000
000000
000000
000000
,
000000
000000
000000
000000
,
000000
000000
000000
000000
,
010000
000000
000000
000000
,
000010
000000
000000
000000
,
000001
000000
100000
000000
,
000100
000000
001000
000000
,
100000
001000
100000
001000
,
001000
100000
001000
100000
,
000001
001000
000001
001000
,
001000
000001
001000
000001
,
100000
000100
000001
000000
,
100000
000100
100001
000100
,
000001
000000
000000
000001
,
000100
100001
000100
100000
,
001000
100001
001000
000000
,
100000
001000
100001
001000
,
000001
000000
000000
000100
,
010010
001000
001000
000000
,
000100
001000
000100
001000
000010
000001
000010
000001
,
000100
001000
000100
001000
010000
100000
010000
100000
,
000100
100000
000100
000000
010000
100000
010000
100000
,
000100
010000
000100
010000
000010
000100
000010
000100
,
000001
000010
000001
000010
000001
000100
000001
000100
,
001000
100000
001000
100000
000001
001000
000001
001000
,
000100
001000
000100
000000
100000
000100
100000
000000
,
100000
010000
100000
000010
000100
000001
000010
000000
,
000000
000000
000000
000000
,
010000
000100
000010
010000
,
000100
000000
000010
000000
100000
000001
100000
000000
,
100100
100100
000101
000101
,
100100
000000
000101
000000
000010
010000
000010
000000
,
100000
001000
000001
100001
,
001000
000000
000001
000000
010000
000010
010000
000000
,
000010
010000
000000
000000
,
100000
010000
100000
000000
010000
100000
010000
100000
,
000000
000000
000000
000000
,
100000
000100
100000
000100
001000
000001
001000
000001
,
100000
100000
000001
000001
,
000000
000000
000000
000000
,
100000
001000
100000
001000
,
001000
100000
001000
100000
,
000001
001000
000001
001000
,
001000
000001
001000
000001
,
010000
000100
000010
010000
,
000100
000000
000010
000000
100000
000001
100000
000000
,
110000
010100
000110
000011
,
000110
000000
000011
000000
000010
010000
000010
000000
,
110000
001000
000001
100100
,
001000
000000
000001
000000
010000
000010
010000
000000
,
000100
010000
000010
000000
000000
000000
000000
000000
,
100000
001000
100000
000000
001000
100000
001000
100000
,
000000
000000
000000
000000
,
100000
000100
001000
000001
000100
000001
100000
001000
,
100000
100000
000001
000001
,
010000
000000
000010
000000
,
100000
000100
001000
000001
,
100000
000100
001000
000001
000100
000001
100000
001000
,
100000
100000
000001
000001
,
100000
000100
001000
000001
,
010010
000000
000000
000000
;
