#VERSION:0.83;
#TITLE:Uuuuus!;
#SUBTITLE:One Piece 26th Opening;
#ARTIST:Hiroshi Kitadani;
#TITLETRANSLIT:;
#SUBTITLETRANSLIT:;
#ARTISTTRANSLIT:;
#GENRE:;
#ORIGIN:;
#CREDIT:;
#BANNER:Uuuuus!.png;
#BACKGROUND:Uuuuus! bg.png;
#PREVIEWVID:;
#JACKET:;
#CDIMAGE:;
#DISCIMAGE:;
#LYRICSPATH:;
#CDTITLE:Magna Trick title!.png;
#MUSIC:Uuuuus!.mp3;
#OFFSET:-0.260750;
#SAMPLESTART:32.159679;
#SAMPLELENGTH:12.000000;
#SELECTABLE:YES;
#BPMS:0.000=90.990,
9.000=363.958,
25.000=181.979,
89.000=363.958,
97.000=181.979,
129.000=363.958,
134.000=181.979,
161.000=90.990,
172.000=181.979,
182.000=363.958,
187.000=181.979,
248.000=363.958,
260.000=181.979;
#STOPS:129.000=0.165,
130.000=0.165,
131.000=0.165,
132.000=0.165,
133.000=0.165,
182.000=0.165,
183.000=0.165,
184.000=0.165,
185.000=0.165,
186.000=0.165;
#DELAYS:;
#WARPS:;
#TIMESIGNATURES:0.000=4=4;
#TICKCOUNTS:0.000=4;
#COMBOS:0.000=1;
#SPEEDS:0.000=1.000=0.000=0;
#SCROLLS:0.000=1.000;
#FAKES:;
#LABELS:0.000=Song Start;
#BGCHANGES:0.063=Uuuuus!.mp4=1.000=0=0=1=====,
99999=-nosongbg-=1.000=0=0=0 // don't automatically add -songbackground-
;
#KEYSOUNDS:;
#ATTACKS:
;

//---------------dance-single - Magna Trick----------------
#NOTEDATA:;
#CHARTNAME:Magna Trick;
#STEPSTYPE:dance-single;
#DESCRIPTION:Magna Trick;
#CHARTSTYLE:;
#DIFFICULTY:Beginner;
#METER:3;
#RADARVALUES:0.254075,0.445470,0.000000,0.156600,0.039150,159.000000,159.000000,0.000000,14.000000,0.000000,0.000000,0.000000,0.000000,0.000000,0.254075,0.445470,0.000000,0.156600,0.039150,159.000000,159.000000,0.000000,14.000000,0.000000,0.000000,0.000000,0.000000,0.000000;
#CREDIT:Magna Trick;
#NOTES:
0000
0000
0000
0000
0000
0000
0000
0000
0010
0000
0000
0000
0000
0000
0000
1000
0000
0000
0000
0000
0020
0000
0000
0000
0000
0000
0000
0000
0000
0000
2030
0000
,
0000
0000
0000
0000
0000
0000
0000
0000
0000
0000
0000
0000
0000
0000
0000
0000
0000
0000
0000
0000
0000
0000
0000
0000
3000
0000
0000
0000
0000
0000
0000
0000
0000
0000
0000
0000
0000
0000
0000
0000
0000
0000
0000
0000
0000
0000
0000
0000
0100
0000
0000
0000
0000
0000
0000
0000
0000
0000
0000
0000
0000
0000
0000
0000
0000
0000
0000
0000
0000
0000
0000
0000
0000
0000
0000
0000
0000
0000
0000
0000
0000
0000
0000
0000
0100
0000
0000
0000
0000
0000
0000
0000
0000
0000
0000
0000
0000
0000
0000
0000
0000
0000
0000
0000
0000
0000
0000
0000
0000
0000
0000
0000
0000
0000
0000
0000
0100
0000
0000
0000
0000
0000
0000
0000
0000
0000
0000
0000
0000
0000
0000
0000
0000
0000
0000
0000
0000
0000
0000
0000
0010
0000
0000
0000
0000
0000
0000
0000
0000
0000
0000
0000
0000
0000
0000
0000
0000
0000
0000
0000
0000
0000
0000
0000
0000
0010
0000
0000
0000
0000
0000
0000
0000
0000
0000
0000
0000
0000
0000
0000
0000
0000
0000
0000
0000
0000
0000
0000
0000
0000
0000
0000
,
0010
0000
0000
0001
0002
0000
0000
0000
0000
0000
0000
0000
0000
0000
0000
0000
,
0000
0000
0000
0000
,
0000
0000
0000
0000
,
0000
0000
0000
0000
,
0000
0000
1003
0000
0000
0100
0000
0000
,
0000
1000
1000
1000
,
1000
0000
0001
0000
0000
0100
0000
0000
,
0000
0001
1000
0001
,
0000
0100
0100
0000
,
0000
0010
0010
0000
,
0000
1000
0000
0001
,
0001
1000
0000
0000
,
0000
0010
0000
0000
0000
0010
0000
0000
,
0000
0010
0010
0000
,
0000
1000
1000
0000
,
0000
0001
0000
1000
,
0000
0000
0000
0100
0000
0100
0000
0100
,
0000
0000
0010
0000
0000
0010
0000
0000
,
0000
0001
0001
1000
,
0001
1000
1000
0001
,
1000
0002
0000
0000
,
0000
0000
0000
0000
,
0000
1003
0100
1000
,
0000
0001
0001
0001
,
0000
0100
0010
0100
,
0000
0010
0010
0010
,
0000
0000
0000
1000
0000
0000
1000
0000
,
0000
0000
1000
0000
0000
1000
0000
0000
,
0000
0010
0010
1000
,
1000
0001
0000
0100
,
0100
0010
0010
0010
,
0010
0010
0200
0000
,
0300
0001
0000
0001
,
0000
1000
0000
1000
,
0000
0100
0000
0100
,
0000
0010
0010
0010
,
0010
0020
0000
0032
,
0000
0000
0000
0003
,
0000
0000
1000
0000
0001
0000
1000
1000
,
0001
0000
1000
0000
0001
0000
1000
1000
,
0001
0100
0010
2000
0000
0000
0001
0000
,
3002
0000
1003
1000
,
0001
0000
0100
0010
,
0100
0000
0001
0001
,
0001
0001
0001
0200
,
0000
0300
1000
0000
,
0010
0000
0100
0000
,
0100
0000
0001
0000
,
0001
0000
1000
1000
,
0001
0001
1000
0000
,
0010
0000
0100
0000
,
0001
0000
1000
1000
,
0001
1000
0001
0001
,
1000
0001
1000
0000
,
0000
0000
0010
0000
,
0010
0000
0000
0000
1000
0000
0000
0001
,
0000
0000
2000
0000
0000
0000
3000
0001
,
0000
0000
0000
0000
0100
0000
0000
0100
,
0000
0100
0010
1000
,
0001
0000
0020
0000
,
0230
0000
0000
0000
,
0000
0000
0000
0000
,
0000
0000
0000
0000
,
2300
0000
0000
0000
,
0000
0000
0000
3000
0000
0000
0000
0000
;

//---------------dance-single - Magna Trick----------------
#NOTEDATA:;
#CHARTNAME:Magna Trick;
#STEPSTYPE:dance-single;
#DESCRIPTION:Magna Trick;
#CHARTSTYLE:;
#DIFFICULTY:Easy;
#METER:5;
#RADARVALUES:0.341962,0.519715,0.257271,0.246085,0.044743,214.000000,191.000000,23.000000,22.000000,0.000000,0.000000,0.000000,0.000000,0.000000,0.341962,0.519715,0.257271,0.246085,0.044743,214.000000,191.000000,23.000000,22.000000,0.000000,0.000000,0.000000,0.000000,0.000000;
#CREDIT:Magna Trick;
#NOTES:
0000
0000
0000
0000
0000
0000
0000
0000
0100
0000
0000
0000
0000
0000
0000
0001
0000
0000
0000
0000
0200
0000
0000
0000
0000
0000
0000
0000
0000
0000
0302
0000
,
0000
0000
0000
0000
0000
0000
0000
0000
0000
0000
0000
0000
0000
0000
0000
0000
0000
0000
0000
0000
0000
0000
0000
0000
0003
0000
0000
0000
0000
0000
0000
0000
0000
0000
0000
0000
0000
0000
0000
0000
0000
0000
0000
0000
0000
0000
0000
0000
0010
0000
0000
0000
0000
0000
0000
0000
0000
0000
0000
0000
0000
0000
0000
0000
0000
0000
0000
0000
0000
0000
0000
0000
0000
0000
0000
0000
0000
0000
0000
0000
0000
0000
0000
0000
0010
0000
0000
0000
0000
0000
0000
0000
0000
0000
0000
0000
0000
0000
0000
0000
0000
0000
0000
0000
0000
0000
0000
0000
0000
0000
0000
0000
0000
0000
0000
0000
0010
0000
0000
0000
0000
0000
0000
0000
0000
0000
0000
0000
0000
0000
0000
0000
0000
0000
0000
0000
0000
0000
0000
0000
0100
0000
0000
0000
0000
0000
0000
0000
0000
0000
0000
0000
0000
0000
0000
0000
0000
0000
0000
0000
0000
0000
0000
0000
0000
0100
0000
0000
0000
0000
0000
0000
0000
0000
0000
0000
0000
0000
0000
0000
0000
0000
0000
0000
0000
0000
0000
0000
0000
0000
0000
0000
,
0100
0000
0000
1000
2000
0000
0000
0000
0000
0000
0000
0000
0000
0000
0000
0000
,
0000
0000
0000
0000
,
0000
0000
0000
0000
,
0000
0000
0000
0000
,
0000
0000
3002
0000
0000
0023
0000
0000
,
0030
0001
0001
0001
,
0001
0000
2000
0000
0000
3020
0000
0000
,
0030
0000
0000
0000
1000
0000
0000
0100
0000
0000
0001
0000
0100
0000
0000
0000
,
1000
0010
0010
0000
,
1000
0100
0100
0000
,
0001
0011
0000
1000
,
1000
0101
0000
0000
,
0000
0100
0000
0000
0000
0100
0000
0000
,
0010
0100
0100
0000
,
0010
0001
0001
1000
,
0010
1000
0100
0001
,
0100
0000
0000
0110
0000
0110
0000
0110
,
0000
0000
1100
0000
0000
1100
0000
0000
,
0000
1000
1000
0001
,
1000
0001
0001
1000
,
0001
0100
2000
0000
0000
0000
0000
0000
,
0000
0000
0000
0000
,
0000
3001
0010
0001
,
0100
1000
1000
1000
,
0001
0010
0100
0010
,
0001
0100
0100
0100
,
0010
0000
0000
0101
0000
0000
0011
0000
,
0000
0000
0101
0000
0000
0011
0000
0000
,
0000
0100
0100
0001
,
0001
1000
0100
0010
,
0010
0100
0100
0100
,
0100
0100
0020
0000
,
0031
1000
0000
2000
,
3000
0001
0000
0002
,
0003
0010
0000
0020
,
0030
0100
1000
0001
,
0010
0200
0000
2300
,
0000
0000
0010
0000
0000
0010
3000
0000
,
0000
0000
0001
0100
1000
0000
0001
0001
,
1000
0000
0001
0100
1000
0000
0001
0001
,
1000
0010
0100
0002
0000
0000
1000
0000
,
2003
0000
3001
0001
,
1000
0001
0010
0100
,
0010
0001
1100
1010
,
1100
1010
1100
0020
,
0000
0000
0130
0000
1001
0000
0000
0010
,
0100
0000
0000
0000
0010
0000
0000
0100
,
0010
0000
0000
0000
1000
0000
0000
0001
,
1000
0000
0001
0001
,
1000
0000
1000
0000
0001
0000
0000
0010
,
0100
0000
0010
0000
,
1000
0000
0001
0001
,
1000
0001
1000
1000
,
0001
0000
1000
0100
0001
0000
0000
0000
,
0000
0000
0100
0010
,
0100
0000
0010
0000
0101
0000
0000
1100
,
0000
0000
0102
0000
0000
0000
0003
2000
,
0000
0000
3000
0000
0011
0000
0000
1010
,
0000
0011
0100
0001
,
1000
0000
0000
0010
0200
0000
0000
0000
,
0320
0000
0000
0000
,
0000
0000
0000
0000
,
0000
0000
0000
0000
,
0032
0000
0000
0000
,
0000
0000
0000
0003
0000
0000
0000
0000
;

//---------------dance-single - Magna Trick----------------
#NOTEDATA:;
#CHARTNAME:Magna Trick;
#STEPSTYPE:dance-single;
#DESCRIPTION:Magna Trick;
#CHARTSTYLE:;
#DIFFICULTY:Medium;
#METER:8;
#RADARVALUES:0.433046,0.593960,0.436242,0.380313,0.044743,271.000000,232.000000,39.000000,34.000000,0.000000,0.000000,0.000000,0.000000,0.000000,0.433046,0.593960,0.436242,0.380313,0.044743,271.000000,232.000000,39.000000,34.000000,0.000000,0.000000,0.000000,0.000000,0.000000;
#CREDIT:Magna Trick;
#NOTES:
0000
0000
0000
0000
0000
0000
0000
0000
0010
0000
0000
0000
0000
0000
0000
1000
0000
0000
0000
0000
0020
0000
0000
0000
0000
0000
0000
0000
0000
0000
2030
0000
,
0000
0000
0000
0000
0000
0000
0000
0000
0000
0000
0000
0000
0000
0000
0000
0000
0000
0000
0000
0000
0000
0000
0000
0000
3000
0000
0000
0000
0000
0000
0000
0000
0000
0000
0000
0000
0000
0000
0000
0000
0000
0000
0000
0000
0000
0000
0000
0000
0100
0000
0000
0000
0000
0000
0000
0000
0000
0000
0000
0000
0000
0000
0000
0000
0000
0000
0000
0000
0000
0000
0000
0000
0000
0000
0000
0000
0000
0000
0000
0000
0000
0000
0000
0000
0100
0000
0000
0000
0000
0000
0000
0000
0000
0000
0000
0000
0000
0000
0000
0000
0000
0000
0000
0000
0000
0000
0000
0000
0000
0000
0000
0000
0000
0000
0000
0000
0100
0000
0000
0000
0000
0000
0000
0000
0000
0000
0000
0000
0000
0000
0000
0000
0000
0000
0000
0000
0000
0000
0000
0000
0010
0000
0000
0000
0000
0000
0000
0000
0000
0000
0000
0000
0000
0000
0000
0000
0000
0000
0000
0000
0000
0000
0000
0000
0000
0010
0000
0000
0000
0000
0000
0000
0000
0000
0000
0000
0000
0000
0000
0000
0000
0000
0000
0000
0000
0000
0000
0000
0000
0000
0000
0000
,
0010
0000
0000
0001
0002
0000
0000
0000
0000
0000
0000
0000
0000
0000
0000
0000
,
0000
0000
0000
0000
,
0000
0000
0000
0000
,
0000
0000
0000
0000
,
0000
0003
1100
0000
0000
0101
0000
0000
,
0000
1000
1000
1000
,
1000
0100
0002
0000
0000
0203
0000
0000
,
0300
0000
0000
0000
0001
0000
0000
0010
0000
0000
1000
0000
0010
0000
0001
0000
,
0001
0010
0100
0000
1000
0000
0000
0100
,
0010
0001
0010
0000
0100
0000
0000
0000
,
1000
0000
1100
0100
0000
0000
0001
0100
,
0001
0000
1010
0000
0000
0000
0000
0100
,
0100
0010
0000
0100
0100
0010
0000
1000
,
0100
0010
0002
0000
0023
0000
0030
0000
,
0100
0100
1000
0000
1100
0000
0000
0010
,
0010
0100
0001
0000
0010
0000
1000
0000
,
0010
1000
0000
0110
0000
0110
0000
0110
,
0000
0001
0011
0010
0001
0022
0000
0000
,
0033
0000
0001
0100
0001
0100
0010
0000
,
1000
0000
1000
0100
1000
0100
0010
0000
,
0001
0010
0002
0000
0000
0000
0000
0000
,
0000
0000
0000
0000
,
0000
1003
0100
1000
,
0010
0000
0001
0000
0001
1000
0001
0000
,
1000
0100
0010
0100
,
1000
0000
0010
0000
0010
1000
0010
0000
,
0100
0000
0000
1010
0010
0000
1100
1000
,
0000
0010
1010
0000
1000
2200
0000
0000
,
3300
0010
0010
1000
,
1000
0000
0001
1000
0010
0000
0100
0000
,
0100
0110
1001
0110
,
1001
1001
0200
0000
,
1300
0000
0101
0000
0000
0100
0002
0000
,
0003
0000
1100
0000
0000
0001
2000
0000
,
3000
0000
0110
0000
0000
0010
0200
0000
,
0300
0010
0010
0000
0001
0000
1000
0000
,
0100
0000
0020
0000
0000
0032
0000
0000
,
0000
0000
0100
0000
0000
0100
0000
0000
,
0003
0000
1100
0010
0001
0000
1000
1000
,
0001
0000
1100
0010
0001
0000
1000
1000
,
0001
0100
0010
2000
0000
0000
0001
0000
,
3002
0000
1003
1000
,
0001
1000
0100
0010
,
0100
1000
0011
0101
,
0011
0101
0011
0200
,
0000
0000
0310
0000
1001
0000
0000
0100
,
0020
0000
0030
0000
0110
0000
0000
0010
,
0200
0000
0300
0000
1001
0000
0000
1000
,
0002
0000
0003
1000
1000
0000
1000
0000
,
0001
0000
0001
0000
2000
0000
0000
3100
,
0020
0000
0000
0000
0100
0100
0001
0032
,
0000
0000
0000
0003
1001
0000
1000
0000
,
0001
0000
1000
0100
0001
0000
0001
0100
,
1000
0000
0001
0010
2000
0000
3000
0000
,
0000
0000
0010
1000
0010
0000
0100
0000
,
0010
0000
0100
0000
1010
0000
0000
0011
,
0000
0000
2010
0000
0000
0000
3000
0002
,
0000
0000
0003
0000
1100
0000
0000
0101
,
0000
1100
0010
1000
,
0002
0000
0000
0103
0020
0000
0000
0000
,
0230
0000
0000
0000
,
0000
0000
0000
0000
,
0000
0000
0000
0000
,
2300
0000
0000
0000
,
0000
0000
0000
3000
0000
0000
0000
0000
;

//---------------dance-single - Magna Trick----------------
#NOTEDATA:;
#CHARTNAME:Magna Trick;
#STEPSTYPE:dance-single;
#DESCRIPTION:Magna Trick;
#CHARTSTYLE:;
#DIFFICULTY:Hard;
#METER:10;
#RADARVALUES:0.503356,0.928062,0.436242,0.659955,0.117450,315.000000,276.000000,39.000000,59.000000,0.000000,0.000000,0.000000,0.000000,0.000000,0.503356,0.928062,0.436242,0.659955,0.117450,315.000000,276.000000,39.000000,59.000000,0.000000,0.000000,0.000000,0.000000,0.000000;
#CREDIT:Magna Trick;
#NOTES:
0000
0000
0000
0000
0000
0000
0000
0000
0100
0000
0000
0000
0000
0000
0000
0001
0000
0000
0000
0000
0200
0000
0000
0000
0000
0000
0000
0000
0000
0000
0302
0000
,
0000
0000
0000
0000
0000
0000
0000
0000
0000
0000
0000
0000
0000
0000
0000
0000
0000
0000
0000
0000
0000
0000
0000
0000
0003
0000
0000
0000
0000
0000
0000
0000
0000
0000
0000
0000
0000
0000
0000
0000
0000
0000
0000
0000
0000
0000
0000
0000
0010
0000
0000
0000
0000
0000
0000
0000
0000
0000
0000
0000
0000
0000
0000
0000
0000
0000
0000
0000
0000
0000
0000
0000
0000
0000
0000
0000
0000
0000
0000
0000
0000
0000
0000
0000
0010
0000
0000
0000
0000
0000
0000
0000
0000
0000
0000
0000
0000
0000
0000
0000
0000
0000
0000
0000
0000
0000
0000
0000
0000
0000
0000
0000
0000
0000
0000
0000
0010
0000
0000
0000
0000
0000
0000
0000
0000
0000
0000
0000
0000
0000
0000
0000
0000
0000
0000
0000
0000
0000
0000
0000
0100
0000
0000
0000
0000
0000
0000
0000
0000
0000
0000
0000
0000
0000
0000
0000
0000
0000
0000
0000
0000
0000
0000
0000
0000
0100
0000
0000
0000
0000
0000
0000
0000
0000
0000
0000
0000
0000
0000
0000
0000
0000
0000
0000
0000
0000
0000
0000
0000
0000
0000
0000
,
0100
0000
0000
1000
2000
0000
0000
0000
0000
0000
0000
0000
0000
0000
0000
0000
,
0000
0000
0000
0000
,
0000
0001
0000
0001
,
0000
0001
0000
0001
,
0001
3000
0022
0000
0033
2020
0000
3030
,
0000
2000
3200
0320
,
0032
1000
2003
0000
0000
3020
0000
0000
,
0030
0000
1000
0001
1000
0000
0000
0100
0000
0000
0001
0000
0100
0000
1000
0000
,
1000
0100
0020
0000
0032
0000
0003
0010
,
0100
1000
0200
0000
0320
0000
0030
0000
,
0001
0000
0011
0010
0000
0001
1000
0010
,
1000
0001
0202
0000
0303
0000
1000
0010
,
0010
0100
0000
0010
0010
0100
0000
0001
,
0010
0000
0100
0000
2000
0000
0000
0000
3200
0000
0000
0000
0300
0000
0000
0001
,
0010
0100
2000
0000
3002
0000
0003
0100
,
0100
0010
1000
0000
0100
0000
0001
0000
,
0100
1000
0001
0110
0000
0110
0000
0110
,
0000
1000
1100
0100
1000
2200
0000
0000
,
3300
0000
0000
0000
1000
0000
0010
0000
1000
0000
0010
0000
0100
0000
0001
0100
,
0000
0000
0001
0001
0010
0010
0100
0000
,
1001
0100
2001
0000
0000
0000
0000
0000
,
0020
0000
0030
0000
,
0000
3001
0010
0001
,
0100
0010
0000
0010
1000
0001
1000
0000
,
0001
0010
0100
0010
,
0001
1000
0000
1000
0100
0001
0100
0010
,
0001
0001
1000
0101
0100
0000
0011
0001
,
0000
0100
0101
0000
0001
0022
0000
0000
,
0033
0110
1000
0001
,
0001
1000
0000
0001
0100
0010
1000
0000
,
0010
0110
1001
0110
,
1001
1001
0020
0000
,
2030
0000
3002
0000
0000
0010
2003
0000
,
3000
0000
0200
0000
0000
1000
0302
0000
,
0003
0000
2000
0000
0000
0100
3020
0000
,
0030
0100
0100
0000
1000
0000
0001
0000
,
0010
0000
0200
0000
0000
2300
0000
0000
,
0000
0000
0010
0000
0000
0010
0000
0000
,
3000
0000
0000
0000
0011
0000
0100
0000
1000
0000
0001
0100
0000
0001
0100
0001
,
0100
0000
0010
0000
1001
0000
0100
0000
1000
0000
0100
0010
0000
0001
1000
0001
,
1000
0100
0010
0001
0100
0000
0002
0000
1000
1000
1000
1000
1000
0000
0000
0000
,
2003
0000
0000
3000
0101
0000
0001
0000
,
1000
0000
0001
0010
0000
0100
0010
0001
,
1000
0100
0001
0000
1100
0000
1010
0000
,
1100
1010
1100
0020
,
0000
0000
0130
0000
1001
0000
0000
0010
,
0200
0000
0300
0000
0110
0000
0000
0100
,
0020
0000
0030
0000
1001
0000
0000
0001
,
2000
0000
3000
0001
0001
0000
0001
0000
,
1000
0000
1000
0000
0002
0000
0000
0013
,
0200
0000
0000
0000
0010
0010
1000
2300
,
0000
0000
0000
3000
1001
0000
0001
0000
,
1000
0000
0001
0010
0000
1000
0010
0001
,
1000
0010
1000
0100
0002
0000
0003
0000
,
0000
1000
0100
0001
0100
0000
0010
0000
,
0100
1000
0010
0000
0202
0000
0303
2200
,
0000
3300
0102
0000
0000
0000
0003
2000
,
0000
0000
3000
0000
0011
0000
0000
1010
,
0000
0011
0100
0001
,
2000
0000
0000
3010
0200
0000
0000
0000
,
0320
0000
0000
0000
,
0100
0000
0100
0000
,
0100
0000
0001
0001
,
0032
0000
0000
0000
,
0000
0000
0000
0003
0000
0000
0000
0000
;

//---------------dance-single - Magna Trick----------------
#NOTEDATA:;
#CHARTNAME:Magna Trick;
#STEPSTYPE:dance-single;
#DESCRIPTION:Magna Trick;
#CHARTSTYLE:;
#DIFFICULTY:Challenge;
#METER:14;
#RADARVALUES:0.602429,1.002307,0.536913,0.548098,0.206935,377.000000,329.000000,48.000000,49.000000,0.000000,0.000000,0.000000,0.000000,0.000000,0.602429,1.002307,0.536913,0.548098,0.206935,377.000000,329.000000,48.000000,49.000000,0.000000,0.000000,0.000000,0.000000,0.000000;
#CREDIT:Magna Trick;
#NOTES:
0000
0000
0000
0000
0000
0000
0000
0000
0010
0000
0000
0000
0000
0000
0000
1000
0000
0000
0000
0000
0020
0000
0000
0000
0000
0000
0000
0000
0000
0000
2030
0000
,
0000
0000
0000
0000
0000
0000
0000
0000
0000
0000
0000
0000
0000
0000
0000
0000
0000
0000
0000
0000
0000
0000
0000
0000
3000
0000
0000
0000
0000
0000
0000
0000
0000
0000
0000
0000
0000
0000
0000
0000
0000
0000
0000
0000
0000
0000
0000
0000
0100
0000
0000
0000
0000
0000
0000
0000
0000
0000
0000
0000
0000
0000
0000
0000
0000
0000
0000
0000
0000
0000
0000
0000
0000
0000
0000
0000
0000
0000
0000
0000
0000
0000
0000
0000
0100
0000
0000
0000
0000
0000
0000
0000
0000
0000
0000
0000
0000
0000
0000
0000
0000
0000
0000
0000
0000
0000
0000
0000
0000
0000
0000
0000
0000
0000
0000
0000
0100
0000
0000
0000
0000
0000
0000
0000
0000
0000
0000
0000
0000
0000
0000
0000
0000
0000
0000
0000
0000
0000
0000
0000
0010
0000
0000
0000
0000
0000
0000
0000
0000
0000
0000
0000
0000
0000
0000
0000
0000
0000
0000
0000
0000
0000
0000
0000
0000
0010
0000
0000
0000
0000
0000
0000
0000
0000
0000
0000
0000
0000
0000
0000
0000
0000
0000
0000
0000
0000
0000
0000
0000
0000
0000
0000
,
0010
0000
0000
0001
0002
0000
0000
0000
0000
0000
0000
0000
0000
0000
0000
0000
,
0000
0000
0000
0000
,
0000
0000
1000
0000
0000
1000
1000
0000
,
0000
1000
1000
0000
0000
1000
1000
0000
,
1003
0100
0020
0000
0030
0002
0000
0003
,
0000
0000
0001
0001
0010
0010
0100
0100
,
1000
1000
0002
0000
0000
0203
0000
0000
,
0300
0000
0001
1000
0001
0000
0000
1010
0000
0000
1100
0000
0011
0000
0101
0000
,
0001
0010
0200
0000
2300
0000
3000
0100
,
0010
0001
0020
0000
0230
0000
0300
0000
,
1000
0000
1100
1010
0000
1000
0001
0100
,
0001
1000
2020
0000
3030
0000
0001
0100
,
0100
0010
0000
0100
0100
0010
0000
1000
,
0100
0000
0010
0000
0002
0000
0000
0000
0023
0000
0000
0000
0030
0000
0000
1000
,
0100
0010
0002
0000
2003
0000
3000
0010
,
0010
0100
0001
0000
0010
0000
1000
0000
,
0010
0000
0001
1000
0010
0000
0110
0000
0000
0000
0110
0000
0000
0000
0110
0000
,
0000
0001
0011
0010
0001
0022
0000
0000
,
0033
0000
0000
0000
0001
0000
0100
0000
0001
0000
0100
0000
0010
0000
1000
0010
,
0000
0000
1000
1000
0100
0100
0010
0000
,
1001
0010
1002
0000
0000
0000
0000
0000
,
0000
1000
1000
1000
,
1000
0003
0110
0000
0100
0000
1000
0000
,
0010
0100
0000
0100
0001
1000
0001
0000
,
1000
1100
0010
0100
,
1000
0000
0001
0000
0000
0000
0001
0000
0010
0000
1000
0000
0010
0000
0100
0010
,
0001
0010
0001
0000
1000
0000
1010
0000
1100
0000
0000
0000
1100
0000
1010
0000
,
0000
0000
1100
0000
1010
0000
0000
0000
1010
0000
1100
0000
0000
0000
0000
1000
,
0001
1000
0110
0000
0001
0000
1000
0000
,
1000
0001
0000
1000
0010
0100
0001
0010
,
0100
0110
1001
0110
,
1001
1001
0200
0000
,
0302
0000
2003
0000
0000
0100
3002
0000
,
0003
0000
0020
0000
0000
0001
2030
0000
,
3000
0000
0002
0000
0000
0010
0203
0000
,
0300
0010
0010
0000
0001
0000
1000
0000
,
0100
0100
0020
0000
0000
0032
0000
0000
,
0000
0000
0100
0000
0000
0100
0000
0000
,
0003
0000
0000
0000
1100
0000
0010
0000
0001
0000
1000
0010
0000
1000
0010
1000
,
0010
0000
0100
0000
1001
0000
0010
0000
0001
0000
0010
0100
0000
1000
0001
1000
,
0001
0010
0100
1000
0010
0000
2000
0000
0001
0001
0001
0001
0001
0000
0000
0000
,
3001
0100
0001
0100
0001
0100
0001
0100
1010
0000
0000
0000
1000
0000
0000
0000
,
0001
0000
1000
0100
0000
0010
0100
1000
,
0001
0010
1000
0000
0011
0000
0101
0000
,
0011
0101
0011
0200
,
0000
0000
0310
0000
1001
0000
0000
0100
,
0020
0000
1030
0000
0110
0000
0000
0010
,
0200
0000
0301
0000
1001
0000
0000
1000
,
0002
0000
0003
1000
1000
0000
1000
0000
,
0001
0000
0001
0100
2000
0000
0000
3100
,
0020
0000
0000
0000
0100
0100
0001
0031
,
0100
0000
1000
0100
1000
0000
0001
0100
1001
0000
0000
0000
1000
0000
0000
0000
,
0001
0000
1000
0100
0000
0001
0100
1000
,
0001
0100
0001
0010
2000
0000
3001
0000
,
2000
0000
0001
0000
0010
0000
0000
0000
3010
0000
0100
0000
0001
0000
0010
0001
,
0010
0000
0100
0000
1000
0000
0001
0000
0100
0000
0010
0000
2020
0000
0000
0000
0000
0000
3030
0000
0000
0022
0000
0000
,
0000
0033
2010
0000
0000
0000
3000
0002
,
0000
0000
0003
0000
1100
0000
0001
0101
,
0000
0000
0000
0000
1100
0000
0000
0000
0010
0000
0000
0000
1000
0000
0001
0100
,
0002
0000
0000
0103
0020
0000
0000
0000
,
0230
0010
0010
0010
,
0010
0010
0010
0010
,
0010
0300
1000
0010
1000
0010
1000
0010
,
2000
0000
0000
0000
,
0000
0000
0000
3000
0000
0000
0000
0000
;
